<?xml version="1.0" standalone="no"?> <!DOCTYPE svg PUBLIC "-//W3C//DTD SVG 1.0//EN" "http://www.w3.org/TR/2001/REC-SVG-20010904/DTD/svg10.dtd" > <svg xmlns="http://www.w3.org/2000/svg" width="100%" height="100%">
<defs >
<font id="MathJax_AMS-Regular" horiz-adv-x="756" ><font-face
    font-family="MathJax_AMS"
    units-per-em="1000"
    panose-1="0 0 0 0 0 0 0 0 0 0"
    ascent="1270"
    descent="-663"
    alphabetic="0" />
<missing-glyph horiz-adv-x="250" d="M50 0V533H200V0H50ZM100 50H150V483H100V50Z" />
<glyph unicode=" " glyph-name="space" horiz-adv-x="250" />
<glyph unicode="A" glyph-name="A" horiz-adv-x="722" d="M397 35Q412 35 434 44T456 65Q456 93 428 170L419 197H197L195 179Q184 134 184 97Q184 55 201 41Q206 38 216 36T234 29T241 17Q241 10 235 3Q230 -1 130 -1Q28 -1 24 3Q17 9 17 17Q17 24 22 29T35 35Q49
35 64 44T88 66Q101 93 210 383Q331 693 335 697T346 701T357 697Q358 696 493 399Q621 104 633 83Q656 35 686 35Q693 35 698 30T703 17Q703 9 697 3Q693 -1 541 -1Q388 -1 386 1Q378 6 378 16Q378 24 383 29T397 35ZM493 68Q493 49 481 35H619L613 43Q605 56
468 361L348 637Q347 637 330 592T313 543Q313 536 328 503Q473 176 490 92Q493 80 493 68ZM404 235Q404 240 356 352T295 488L275 430Q233 322 208 232H306Q404 232 404 235ZM155 48Q151 55 148 88V117L135 86Q118 47 117 46L110 37L135 35H159Q157 41 155 48Z"
/>
<glyph unicode="B" glyph-name="B" horiz-adv-x="667" d="M11 665Q11 672 22 683H213Q407 681 431 677Q541 657 571 577Q582 546 582 515Q582 488 573 468Q554 413 484 372L474 366H475Q590 327 613 232Q620 214 620 178Q620 166 618 152Q590 36 420 6Q393 1 207
-1H22Q11 10 11 18Q11 24 15 28Q24 35 51 35Q79 37 88 39T102 52Q107 70 107 341T102 630Q97 640 88 643T51 648Q22 648 15 655Q11 659 11 665ZM233 635L240 648H133L138 639Q142 621 142 341T138 43L133 35H240L233 48L229 61V623L233 635ZM284 370Q357 377 387
407T417 508Q417 611 355 639Q338 648 320 648Q298 648 278 635Q267 628 266 611T264 492V370H284ZM449 637Q431 641 422 641L411 643L420 630Q439 604 445 579T452 510Q452 435 415 383Q424 383 460 399Q512 428 533 463Q546 485 546 515Q546 534 540 555Q527
615 449 637ZM585 185Q585 243 549 280T455 332Q437 337 436 337L435 336Q435 335 442 328Q456 314 462 297Q484 250 484 188Q484 108 453 63Q446 48 442 48Q442 47 444 47Q460 47 500 66Q585 108 585 185ZM449 184Q449 316 358 332Q355 332 335 333T302 335H264V199Q266
68 270 57Q275 50 289 43Q300 37 324 37Q449 37 449 184Z" />
<glyph unicode="C" glyph-name="C" horiz-adv-x="722" d="M666 147Q673 147 678 142T684 131Q684 122 670 108Q646 76 602 47T515 3Q449 -19 386 -19T259 3Q172 33 116 99T44 261Q39 283 39 341T44 421Q66 538 143 611T341 699Q344 699 364 700T395 701Q451 698
501 677Q556 655 585 655Q597 655 604 659Q619 664 621 683Q624 702 639 702Q647 702 653 697L657 690V481L653 474Q640 467 628 472Q622 478 619 492Q611 517 595 541Q545 610 473 643Q431 663 390 663H381Q337 663 299 625Q257 587 235 511T212 336Q212 249 233
179Q274 30 405 30Q427 30 466 37Q560 55 641 130Q658 147 666 147ZM250 625Q264 643 261 643Q208 624 159 577Q74 491 74 341Q74 298 79 268Q107 115 230 54Q266 34 277 34Q270 41 264 48Q199 111 181 254Q178 281 178 344T181 434Q200 559 250 625ZM621 565V625Q617
623 613 623Q603 619 590 619H575L588 605Q608 583 610 579L621 565Z" />
<glyph unicode="D" glyph-name="D" horiz-adv-x="722" d="M21 679L28 683H193Q329 683 364 682T430 672Q534 650 600 585T686 423Q688 406 688 352Q688 274 673 226Q641 130 565 72T381 1Q368 -1 195 -1H28L21 3Q16 10 16 16Q16 21 21 28Q30 35 53 35Q68 36 75
37T87 42T95 52Q98 61 98 341T95 630Q91 640 83 643T53 648Q28 648 21 655Q16 660 16 666T21 679ZM237 646Q237 648 184 648H128Q128 647 133 632Q136 620 136 341Q136 64 133 50L128 35H237L230 48L226 61V343Q228 620 231 633Q232 636 237 646ZM321 648Q287 648
264 621V61L268 55Q280 39 310 35Q350 35 381 46Q495 88 513 295Q515 333 515 349Q515 411 504 459Q479 598 373 641Q351 648 321 648ZM484 619Q480 621 475 623T466 626T461 628Q466 621 473 615Q550 521 550 352Q550 165 479 75L468 59Q483 59 526 90Q654 175
654 354Q654 423 637 468T581 552Q544 593 484 619Z" />
<glyph unicode="E" glyph-name="E" horiz-adv-x="667" d="M437 197Q420 197 420 217Q420 240 406 270Q377 328 284 335H260V201Q262 65 264 57Q266 48 282 35H331Q400 35 449 50Q572 92 602 179Q605 203 622 203Q629 203 634 197T640 183Q638 181 624 95T604 3L600
-1H24L17 3Q12 10 12 16Q12 21 17 28Q26 35 51 35Q92 38 97 52Q102 60 102 341T97 632Q91 645 51 648Q24 648 17 655Q12 660 12 666T17 679L24 683H582L589 679L593 672V588Q593 514 591 502T575 490Q567 490 563 495T555 517Q552 556 517 590Q497 611 480 619Q446
636 420 641T340 648H282L275 643Q265 633 264 615T260 492V370H277Q329 375 358 391T404 439Q420 480 420 506Q420 525 431 528Q444 531 451 521Q455 517 455 361Q455 208 451 203Q444 197 437 197ZM235 648H129L133 639Q137 625 137 341T133 43L129 35H235Q233
41 231 48L226 61V623L231 635L235 648ZM557 603V648H504Q504 646 515 639Q527 634 542 619L557 603ZM420 317V397L406 383Q394 370 380 363L366 355Q373 350 382 346Q400 333 409 328L420 317ZM582 61L586 88Q585 88 582 83Q557 61 526 46L511 37L542 35H577Q577
36 578 39T580 49T582 61Z" />
<glyph unicode="F" glyph-name="F" horiz-adv-x="611" d="M17 679L24 683H573L577 677L584 670V499L577 495Q569 485 557 492Q546 498 546 515Q546 535 533 559Q526 574 506 593T469 621Q415 648 326 648Q293 648 287 647T275 641Q266 632 264 626Q262 618 260
492V370L275 372Q323 376 350 392T393 441Q409 473 409 506Q409 529 427 529Q437 529 442 519Q444 511 444 362Q444 212 442 206Q436 197 426 197Q409 197 409 217Q409 265 375 299Q346 328 280 335H260V206Q260 70 262 63Q265 46 276 41T326 35Q362 35 366 28Q377
17 366 3L360 -1H24L17 3Q12 10 12 16Q12 21 17 28Q26 35 51 35Q92 38 97 52Q102 60 102 341T97 632Q91 645 51 648Q24 648 17 655Q12 660 12 666T17 679ZM235 648H129L133 639Q137 625 137 341T133 43L129 35H182Q233 35 233 39Q226 54 225 92T224 346L226 623L231
635L235 648ZM549 603V648H495L506 641Q531 621 533 619L549 603ZM409 317V395L400 386Q390 376 375 366L357 355L373 346Q394 331 397 328L409 317Z" />
<glyph unicode="G" glyph-name="G" horiz-adv-x="778" d="M341 699Q344 699 364 700T395 701Q451 698 501 677Q556 655 585 655Q597 655 604 659Q619 664 621 683Q624 702 639 702Q647 702 653 697L657 690V481L653 474Q640 467 628 472Q622 478 619 492Q611 517
595 541Q545 610 473 643Q431 663 390 663H381Q337 663 299 625Q213 547 213 337Q213 188 253 110Q286 45 341 23Q357 19 397 19Q486 19 506 39L513 45V119Q513 184 506 203Q491 238 435 250Q421 250 415 257Q404 267 415 281L421 285H737L744 281Q749 274 749
268Q749 260 744 255T730 250Q695 250 677 217Q666 195 666 119Q666 52 664 50Q656 36 555 3Q483 -16 415 -19Q364 -19 348 -17Q226 -3 146 70T44 261Q39 283 39 341T44 421Q66 538 143 611T341 699ZM250 625Q264 643 261 643Q208 624 159 577Q74 491 74 341Q74
298 79 268Q106 117 230 52L250 43Q250 46 241 59Q177 148 177 343V361Q183 534 250 625ZM621 565V625Q617 623 613 623Q603 619 590 619H575L588 605Q608 583 610 579L621 565ZM655 250H517L524 241Q536 227 544 201Q548 190 548 114V39Q549 39 562 44T592 55T615
63L630 70V134Q632 190 634 204T648 237Q655 245 655 250Z" />
<glyph unicode="H" glyph-name="H" horiz-adv-x="778" d="M751 683Q762 676 762 666Q762 659 757 655Q751 648 724 648Q684 645 677 632Q675 626 675 341Q675 57 677 52Q684 38 724 35Q750 35 757 28Q762 23 762 16Q762 6 751 -1H433L426 3Q415 17 426 28Q435
35 459 35Q501 38 506 52Q511 64 511 190V323H266V190Q266 60 271 52Q276 38 317 35Q342 35 351 28Q360 17 351 3L344 -1H26L19 3Q14 10 14 16Q14 21 19 28Q28 35 53 35Q94 38 99 52Q104 60 104 341T99 632Q93 645 53 648Q26 648 19 655Q14 660 14 666T19 679L26
683H344L351 679Q361 665 351 655Q344 648 317 648Q287 645 282 641Q270 637 269 623T266 497V370H511V497Q511 519 510 553Q509 615 507 626T496 641H495Q489 645 459 648Q433 648 426 655Q415 665 426 679L433 683H751ZM235 639L239 648H131L135 639Q139 625
139 341T135 43L131 35H239L235 43Q233 50 233 341T235 639ZM639 341Q639 411 639 486T638 572Q638 629 646 648H537L542 639Q546 625 546 341T542 43L537 35H646L642 43Q639 50 639 341Z" />
<glyph unicode="I" glyph-name="I" horiz-adv-x="389" d="M358 683Q369 676 369 666Q369 659 364 655Q358 648 331 648Q288 645 282 632Q278 626 278 341Q278 57 282 50Q286 42 295 40T331 35Q357 35 364 28Q369 23 369 16Q369 6 358 -1H31L24 3Q20 8 20 16Q20
23 24 28Q33 35 58 35Q84 37 93 39T107 50Q113 60 113 341Q113 623 107 632Q101 645 58 648Q31 648 24 655Q20 659 20 666Q20 674 24 679L31 683H358ZM244 639L249 648H140L144 639Q149 627 149 341T144 43L140 35H249L244 43Q242 50 242 341T244 639Z" />
<glyph unicode="J" glyph-name="J" horiz-adv-x="500" d="M6 30Q6 61 26 82T79 103Q95 103 110 96Q151 73 151 38Q151 9 130 -15Q116 -34 130 -37Q133 -39 157 -39Q208 -39 219 -8L226 3V305Q226 612 224 621Q220 636 211 641T166 647Q137 647 128 654Q119 665
128 679L135 683H466L473 679Q478 672 478 666Q478 661 473 654Q464 647 439 647Q399 644 393 632Q388 620 388 347Q386 69 384 59Q364 -6 316 -39T184 -77H172Q102 -77 56 -48T6 30ZM357 639L362 647H253L257 639Q262 616 262 312V-4L255 -17Q248 -29 250 -29Q252
-29 253 -28Q325 -10 348 65Q350 74 353 354Q353 625 357 639ZM115 36Q115 49 104 58T79 67Q62 67 50 54Q44 47 44 34Q44 9 62 -8Q66 -11 71 -15T81 -22T86 -24L90 -13Q100 3 102 5Q115 22 115 36Z" />
<glyph unicode="K" glyph-name="K" horiz-adv-x="778" d="M768 15Q768 6 758 -1H624Q491 -1 486 3Q480 10 480 17Q480 25 487 30T506 35Q518 36 520 38T520 48L400 195L302 310L286 297L273 283V170Q275 72 276 59T289 41Q293 38 324 35Q349 35 358 28Q367 17
358 3L351 -1H33L26 3Q22 8 22 16Q22 23 26 28Q35 35 60 35Q101 38 106 52Q111 60 111 341T106 632Q100 645 60 648Q33 648 26 655Q22 659 22 666Q22 674 26 679L33 683H351L358 679Q368 665 358 655Q351 648 324 648Q288 645 280 637Q275 631 274 605T273 477L275
343L382 446Q484 540 498 559Q512 576 512 599Q512 617 502 631T475 648Q455 651 455 666Q455 672 462 679Q466 683 593 683H720Q732 675 732 666Q732 659 727 654T713 648Q670 648 589 581Q567 562 490 489T413 415Q413 413 554 245T711 61Q737 35 751 35Q758
35 763 29T768 15ZM242 639L246 648H138L142 639Q146 625 146 341T142 43L138 35H246L242 43Q240 50 240 341T242 639ZM595 632L615 648H535L542 637Q542 636 544 625T549 610V595L562 606Q565 608 577 618T595 632ZM524 226L386 388Q386 389 378 382T358 361Q330
338 330 333Q330 332 330 332L331 330L533 90Q558 55 558 41V35H684L671 50Q667 54 524 226Z" />
<glyph unicode="L" glyph-name="L" horiz-adv-x="667" d="M17 679L24 683H333L340 679Q350 665 340 655Q333 648 309 648Q287 646 279 643T266 630Q264 623 264 346Q264 68 266 57Q273 41 284 35H340Q413 37 460 55Q514 78 553 117T602 197Q605 221 622 221Q629
221 634 215T640 201Q638 194 625 105T611 12Q611 11 606 3L600 -1H24L17 3Q12 10 12 16Q12 21 17 28Q26 35 51 35Q92 38 97 52Q102 60 102 341T97 632Q91 645 51 648Q24 648 17 655Q12 660 12 666T17 679ZM233 643V648H129L133 639Q137 625 137 341T133 43L129
35H237Q235 41 233 48L229 61L226 339Q226 621 229 628Q230 630 231 636T233 643ZM580 48Q580 54 583 73T586 97Q586 98 585 97T579 92T571 86Q549 64 513 43L500 35H577L580 48Z" />
<glyph unicode="M" glyph-name="M" horiz-adv-x="944" d="M17 17Q17 35 39 35Q84 42 97 68L104 79V639L88 641Q72 644 53 648Q25 648 19 659Q18 661 18 666Q18 673 24 679Q28 683 146 683Q261 683 266 679L465 215Q469 215 566 443Q663 676 668 681Q673 683 790
683H908L915 679Q924 664 915 655Q912 648 897 648Q852 640 839 615L835 606L833 346Q833 86 835 79Q838 69 849 58T873 41Q877 40 887 38T901 35Q926 35 926 16Q926 6 915 -1H604L597 3Q588 19 597 28Q600 35 615 35Q660 42 673 68L679 79V339Q679 409 679 443T679
520T679 580T677 597Q646 521 584 375T473 117T424 3Q416 -1 410 -1T401 1Q399 3 273 301L148 599L146 343Q146 86 148 79Q152 69 163 58T186 41Q190 40 200 38T215 35Q226 35 235 28Q244 17 235 3L228 -1H28L21 3Q17 11 17 17ZM344 412L244 648H157L166 637Q169
633 293 346L413 66Q424 88 435 117L457 166L450 170Q440 178 344 412ZM817 646Q817 648 766 648H715V72L708 57Q701 45 697 41L695 37Q695 35 757 35H819L813 46Q802 61 800 76Q797 105 797 346L799 612L804 626Q812 638 815 641L817 646ZM124 42Q119 42 119 38Q119
35 128 35Q132 35 132 36L124 42Z" />
<glyph unicode="N" glyph-name="N" horiz-adv-x="722" d="M24 16Q24 27 31 30T56 34Q62 36 72 37T84 39Q106 48 109 72Q111 83 111 345V603L96 619Q72 643 44 648Q20 648 20 664Q20 669 31 683H142Q256 683 258 681Q259 680 279 653T342 572T422 468L582 259V425Q582
597 580 608Q577 629 565 637T522 648Q500 648 493 654Q484 665 493 679L500 683H691L698 679Q702 674 702 666Q702 657 698 652Q688 648 680 648Q633 648 627 612Q624 601 624 294V-8L620 -15Q613 -20 607 -20T596 -15Q593 -13 371 270L156 548L153 319Q153 85
156 77Q159 53 170 45T213 34Q236 34 242 28Q253 17 242 3L236 -1H36L29 3Q24 8 24 16ZM413 419L240 648H120L136 628Q137 626 361 341T587 54L589 68Q589 78 589 121V192L413 419Z" />
<glyph unicode="O" glyph-name="O" horiz-adv-x="778" d="M333 697Q369 701 387 701Q485 701 562 661Q628 629 671 575T731 448Q742 410 742 341T731 234Q707 140 646 81Q549 -19 389 -19Q228 -19 131 81Q57 155 37 274Q34 292 34 341Q34 392 37 410Q58 528 131
601Q205 678 333 697ZM437 659Q406 664 395 665Q329 665 286 625Q232 571 213 439Q210 408 210 341Q210 275 213 245Q232 111 286 57Q309 37 342 23Q357 19 389 19Q420 19 437 23Q469 38 491 57Q545 110 564 245Q568 285 568 341T564 439Q545 572 491 625Q464 650
437 659ZM177 445Q192 557 249 639Q246 639 224 627T193 608Q189 606 183 601T169 589T155 577Q97 518 77 423Q69 383 69 344Q69 132 231 52Q244 45 246 45Q248 45 246 48Q216 89 202 129T177 239Q174 269 174 341Q174 414 177 445ZM582 610Q578 612 565 619T546
630Q533 637 531 637Q530 637 530 636V635L531 634Q562 591 577 543Q602 471 602 341Q602 261 600 239Q592 174 577 132T531 48L530 47V46Q530 45 531 45Q533 45 546 52Q595 79 622 105Q708 197 708 341Q708 430 677 497Q662 529 636 560T582 610Z" />
<glyph unicode="P" glyph-name="P" horiz-adv-x="611" d="M21 679L28 683H195Q334 683 370 682T437 672Q477 664 515 643Q597 595 597 495Q597 450 581 421Q553 367 495 337Q460 319 401 308Q381 303 319 303H261V181Q261 160 262 127Q263 67 264 57T276 42L277
41Q282 38 313 35Q337 35 346 28Q357 17 346 3L339 -1H28L21 3Q16 10 16 16Q16 21 21 28Q30 35 53 35Q68 36 75 37T87 42T95 52Q98 61 98 341T95 630Q91 640 83 643T53 648Q28 648 21 655Q16 660 16 666T21 679ZM230 635L237 648H128Q128 647 133 632Q136 620 136
341Q136 64 133 50L128 35H235L230 43Q226 57 226 337V621L230 635ZM424 537Q417 600 396 623T322 647Q301 647 293 643Q271 637 264 621Q261 617 261 479V341H301Q346 341 353 343Q406 357 419 423Q426 450 426 498Q426 513 424 537ZM484 619Q481 621 448 635L433
639L439 621Q462 578 462 506Q462 404 433 361Q428 354 428 350H429Q438 350 479 368Q562 410 562 490Q562 551 524 592Q507 607 484 619Z" />
<glyph unicode="Q" glyph-name="Q" horiz-adv-x="778" d="M333 697Q357 701 388 701Q485 701 562 661Q698 595 731 448Q742 410 742 341T731 235Q707 141 646 81Q616 50 575 27T493 -5L480 -10Q480 -17 504 -48Q529 -77 567 -95T648 -114Q672 -114 697 -108Q717
-105 722 -108Q735 -116 729 -130T669 -161Q609 -181 548 -181Q426 -181 342 -97Q308 -63 284 -19L280 -3L262 1Q188 24 131 81Q57 155 37 275Q34 292 34 342T37 410Q58 528 131 601Q206 680 333 697ZM437 659L395 666Q329 666 286 626Q232 570 213 439Q210 408
210 342T213 246Q231 113 286 57Q309 37 342 23Q357 19 389 19Q420 19 437 23Q469 38 491 57Q545 111 564 246Q568 286 568 342Q568 397 564 439Q545 572 491 626Q463 650 437 659ZM246 635L249 639Q246 639 224 627T193 608Q189 606 183 601T169 589T155 577Q98
520 77 423Q69 383 69 344Q69 133 231 52Q247 42 247 46Q247 46 246 48Q216 89 202 129T177 239Q174 269 174 341T177 446Q193 558 246 635ZM582 610Q579 611 572 616T558 624T546 630Q532 638 531 638Q530 638 531 635Q563 590 577 543Q602 472 602 341Q602 261
600 239Q592 174 577 132T531 48Q529 44 532 45T546 52Q595 79 622 106Q708 197 708 341Q708 430 677 497Q661 530 636 561T582 610ZM391 -17H333Q329 -15 326 -15Q324 -15 324 -17Q324 -21 362 -68Q424 -130 506 -143Q518 -144 544 -144Q569 -144 577 -143L589
-141L575 -139Q539 -125 505 -98T453 -37L442 -19L391 -17Z" />
<glyph unicode="R" glyph-name="R" horiz-adv-x="722" d="M17 665Q17 672 28 683H221Q415 681 439 677Q563 653 608 577L621 548Q626 530 626 497Q626 447 613 419Q578 348 473 326L455 321Q455 313 566 157Q650 44 686 35Q705 30 705 16Q705 7 693 -1H510Q503
6 404 159L306 310H268V183Q270 74 271 60T284 41Q288 38 319 35Q344 35 353 28Q362 17 353 3L346 -1H28L21 3Q16 10 16 16Q16 21 21 28Q30 35 55 35Q96 38 101 52Q106 60 106 341T101 632Q95 645 55 648Q28 648 21 655Q17 659 17 665ZM237 635L244 648H133L137
639Q141 625 141 341T137 43L133 35H241L237 43Q233 57 233 337V621L237 635ZM457 496Q457 621 377 643Q374 643 339 648Q300 648 281 635Q271 628 270 610T268 481V346H284Q327 346 375 352Q424 365 440 394T457 496ZM477 630L457 637L461 626Q474 611 488 561Q492
537 492 496Q492 456 488 428Q484 391 468 370Q464 366 464 361Q464 360 465 360Q469 360 497 370Q593 400 593 495Q593 592 477 630ZM464 243Q411 317 410 317Q404 317 401 315Q384 315 370 312H346L526 35H619L606 50Q553 109 464 243Z" />
<glyph unicode="S" glyph-name="S" horiz-adv-x="556" d="M528 191Q528 97 452 44T266 -10Q231 -10 217 -8T172 4Q144 15 110 15Q86 9 70 -3Q61 -12 53 -12Q46 -12 41 -8L37 -1V112Q37 226 41 230Q48 240 61 237Q72 234 72 212Q72 174 106 121Q113 110 132 90T166
59Q221 23 264 23Q315 23 348 41Q368 50 384 79Q393 102 393 129Q393 151 386 172Q373 208 334 237T221 299Q120 343 74 390T28 501Q28 561 55 610Q98 682 212 699Q214 699 231 700T261 701Q308 698 348 684Q371 675 408 675Q432 679 448 692Q457 702 465 702Q470
702 477 697L481 690V497L477 490Q464 481 450 490Q446 500 446 501Q446 504 441 524Q426 571 378 613T281 664Q267 666 260 666Q213 666 181 639T148 565Q148 560 150 550Q157 518 196 490T319 428Q392 397 435 366T506 284Q528 239 528 191ZM446 619Q446 648
444 648Q439 646 435 644Q425 644 415 639H404L417 624Q435 606 439 601L446 592V619ZM124 619L128 635Q126 635 108 617Q64 576 64 502Q64 452 104 412Q145 371 228 335Q317 298 360 264T419 184Q427 163 427 128Q427 94 419 75L415 61Q421 61 448 88Q490 127
490 190Q490 233 475 264Q456 299 430 321Q391 360 306 395Q244 419 204 441Q138 481 119 526Q113 544 113 565Q113 596 124 619ZM84 90Q82 92 78 97Q75 101 74 101Q72 101 72 72T75 43Q76 43 77 44Q104 50 110 50H119L106 64Q104 67 96 77T84 90Z" />
<glyph unicode="T" glyph-name="T" horiz-adv-x="667" d="M37 679L44 683H624L631 679L635 672V490L631 483Q621 479 617 479Q611 479 606 485T600 499Q600 525 584 552Q577 567 558 588T524 617Q479 642 426 646L415 648V355Q415 62 422 52Q425 42 434 40T473
35Q500 35 509 28Q518 17 509 3L502 -1H166L160 3Q149 17 160 28Q167 35 195 35Q224 37 234 39T249 52Q253 66 253 355V648L242 646Q192 642 144 617Q129 609 110 588T84 552Q69 527 69 499Q69 490 64 484T50 478Q44 478 37 483L33 490V672L37 679ZM113 639L126
648H69V597L84 612Q93 623 113 639ZM380 350V648H289V350Q289 66 284 43L280 35H389L384 43Q380 61 380 350ZM600 597V648H542L555 639Q575 623 584 612L600 597Z" />
<glyph unicode="U" glyph-name="U" horiz-adv-x="722" d="M697 683Q709 675 709 667T704 654T690 648Q653 648 633 597Q624 573 622 546T619 377Q617 193 613 174Q596 95 544 41Q477 -19 355 -19H344Q221 -13 159 52Q118 94 106 154Q101 172 99 399Q99 618 95
632Q88 644 53 648Q29 648 21 654Q16 661 16 666Q16 672 21 679L28 683H341L348 679Q359 665 348 654Q342 648 315 648Q270 644 266 632Q262 627 262 598T261 399Q261 218 262 183T270 117Q286 50 339 30Q355 25 393 25Q444 25 481 43Q497 50 519 72T550 114Q568
154 575 205Q576 219 576 379Q576 538 575 550Q568 597 550 622T506 648Q498 648 493 654T487 667Q487 675 499 683H697ZM228 639L233 648H128Q128 647 133 632Q135 621 135 412Q135 197 137 185Q148 115 181 79Q209 51 235 41Q242 36 258 31T277 25Q273 32 266
41Q239 77 228 145Q226 161 226 399Q226 632 228 639ZM604 621L619 648H577L586 634Q587 632 591 625T595 614L597 608L604 621Z" />
<glyph unicode="V" glyph-name="V" horiz-adv-x="722" d="M547 590Q547 619 541 631T516 648Q501 648 498 654Q488 664 498 679L504 683H607Q686 683 699 682T718 672Q719 670 719 667Q719 660 714 654T700 648Q678 648 658 628L642 614L513 301Q484 231 449 148T397
25T380 -15Q373 -20 368 -20Q361 -20 358 -15Q354 -13 287 135T149 438T67 610Q45 648 18 648Q11 648 6 653T0 666T7 679Q11 683 164 683H316L322 679Q327 673 327 666Q327 648 302 648Q272 642 258 628Q249 621 249 608Q263 530 384 263Q394 243 404 218T420 185Q423
185 473 317Q524 443 542 534Q547 555 547 590ZM216 614Q216 622 216 626T217 634T218 638T220 642T224 648H84L96 632Q118 592 236 330L367 43L387 88L404 132L380 185Q250 468 222 568Q216 590 216 614ZM576 645Q584 630 584 597L587 568L598 597Q609 624 618
637L624 648H600Q576 648 576 645Z" />
<glyph unicode="W" glyph-name="W" horiz-adv-x="1000" d="M802 648Q795 648 790 654T785 666Q785 671 795 683H982L988 679Q994 671 994 665Q994 650 975 648Q953 643 939 619Q931 593 823 292T710 -15Q706 -19 699 -19T688 -15Q682 -6 639 107T555 328T513 437Q513
438 500 409T462 325T413 212Q315 -14 310 -17Q308 -19 302 -19T288 -15L57 619Q45 643 24 648Q5 650 5 665Q5 673 10 679L17 683H146Q247 683 263 682T284 672Q285 670 285 666Q285 659 280 654T268 648Q253 648 239 634Q230 630 230 619Q230 598 264 481L362
192Q363 193 428 341T493 492Q493 496 473 546T446 608Q426 648 399 648Q392 648 387 653T382 667Q382 676 393 683H679Q690 672 690 665Q690 661 685 655T673 648Q653 648 633 632L622 625V610Q629 546 715 310Q722 293 730 268T744 231T751 218Q754 218 779 294Q847
492 847 581Q847 648 802 648ZM194 623Q194 628 199 648H82L90 632Q99 616 199 332L302 50Q303 50 322 94T342 141Q342 145 315 217Q231 458 210 537Q194 591 194 623ZM585 620Q585 635 593 648H530Q466 648 466 645Q468 643 470 639Q484 617 595 323L699 54Q701
56 718 103T735 154L702 245Q585 562 585 620ZM915 645Q915 648 893 648H868L875 634Q876 629 878 617T882 597L884 572L893 597Q897 605 904 622T915 645Z" />
<glyph unicode="X" glyph-name="X" horiz-adv-x="722" d="M28 -1Q16 7 16 15T21 29T35 35Q61 35 117 88Q289 279 304 297Q307 303 255 377Q117 586 79 626Q60 648 39 648Q32 648 27 653T22 666T28 679Q33 683 184 683H335L341 679Q352 665 341 655Q335 648 315
648Q280 644 273 637Q273 636 278 625T293 596T313 561Q381 448 386 448Q464 549 468 563Q478 580 478 601Q478 620 469 634T444 648Q428 648 428 666Q428 677 433 679Q437 683 559 683T686 679Q690 677 690 666Q690 648 673 648Q652 648 619 637Q571 615 517 550Q490
517 450 464T410 408Q415 399 501 273T617 106Q648 61 661 48T688 35Q705 35 705 16Q705 6 695 -1H539Q384 -1 379 3Q373 10 373 17Q373 27 380 31T408 35Q459 40 459 49Q459 59 418 129T335 259Q334 260 332 260Q328 260 273 197Q210 127 208 117Q199 104 199
82Q199 62 211 49T239 35Q247 35 252 29T257 15Q257 11 253 3L246 -1H28ZM237 639V648H173Q113 647 113 646Q113 642 137 612Q186 546 302 373T453 139Q496 64 496 43Q496 37 495 35H559Q622 35 622 37Q622 38 621 39T617 44T607 58T595 75Q555 129 445 293T297
519Q237 615 237 639ZM553 637L566 648H504L508 637Q510 630 515 615V603L528 615Q529 616 539 625T553 637ZM170 46Q169 49 167 58T164 70V83L137 59L113 35H175Q175 38 170 46Z" />
<glyph unicode="Y" glyph-name="Y" horiz-adv-x="722" d="M693 683Q704 676 704 667Q704 650 684 648Q672 645 653 623Q633 604 614 576T517 426L439 301V183Q442 62 444 59Q449 35 504 35Q521 35 528 30Q538 16 528 3L521 -1H195L188 3Q178 16 188 30Q195 35
213 35Q266 35 273 59Q274 61 277 163V261L75 621Q64 638 58 643T37 648Q28 648 22 653T16 667Q16 672 21 679L28 683H295L301 679Q306 672 306 666Q306 648 284 648Q258 648 255 641Q255 635 257 630L282 584Q307 538 336 484T392 385T421 339Q423 339 489 446T557
557Q560 566 560 582Q560 599 557 608Q541 640 504 648Q489 648 486 655Q475 664 486 679L493 683H693ZM219 637V648H101L110 635L313 270V166Q310 59 306 48L301 35H415L410 48Q404 65 404 175V290L317 443Q230 601 226 612Q219 625 219 637ZM608 630L624 648H575Q575
647 580 639T588 623L595 610L608 630Z" />
<glyph unicode="Z" glyph-name="Z" horiz-adv-x="667" d="M39 -1Q29 9 29 12Q29 23 60 77T219 337L410 648H364Q261 648 210 628Q116 592 99 517Q95 498 93 494T81 489T61 503L70 588Q72 607 75 628T79 662T81 675Q84 677 88 681Q90 683 341 683H592Q604 673 604
666Q604 662 412 348L221 37Q221 35 301 35Q406 35 446 48Q504 68 543 111T597 212Q602 239 617 239Q624 239 629 234T635 223Q635 215 621 113T604 8L597 1Q595 -1 317 -1H39ZM148 637L166 648H112V632Q111 629 110 622T108 612Q108 608 109 608Q110 608 119 615Q135
629 148 637ZM552 646Q552 648 504 648Q452 648 450 643Q448 639 266 343T77 37Q77 35 128 35H179L366 339L552 646ZM572 35L576 65Q581 95 581 97L561 77Q542 59 526 48L508 37L539 35H572Z" />
<glyph unicode="k" glyph-name="k" horiz-adv-x="556" d="M519 443Q519 426 497 426Q458 422 361 335Q328 308 315 295Q307 289 310 286T383 193T466 88Q507 35 517 35Q534 35 534 16Q534 6 524 -1H304L297 3Q288 19 297 28Q300 35 317 35Q320 36 324 36T330 37T333
39Q334 41 334 42T330 50Q327 58 273 127T215 199Q212 202 206 199Q201 195 201 137Q201 77 204 70Q210 35 230 35Q238 35 243 29T248 15Q248 8 244 3L237 -1H28L21 3Q17 13 17 17Q17 24 22 29T35 35Q55 35 61 70Q63 78 63 341T61 612Q55 648 35 648Q27 648 22
654T17 668Q17 678 28 683H108H163Q189 683 197 677Q200 676 201 675V461L204 246L244 281Q254 291 272 307Q317 349 326 360T339 386Q340 390 340 398Q340 426 321 426Q314 426 309 431T304 445Q304 454 315 461H508Q519 450 519 443ZM166 359V648H126Q89 648
89 645Q89 644 89 644T90 643T91 640T93 634T95 626Q99 612 99 341T95 57Q94 53 93 49T91 43T90 39L89 37Q89 35 133 35Q176 35 176 37Q175 38 175 39Q175 42 170 57Q166 70 166 359ZM410 423Q412 425 407 426Q404 426 393 426Q373 426 373 423Q374 422 375 417T377
410Q377 399 379 399Q406 419 410 423ZM460 35T460 37T368 152L281 263Q280 263 259 246L239 228Q300 156 355 79Q370 61 370 41V35H417Q460 35 460 37Z" />
<glyph unicode="&#xa0;" glyph-name="uni00A0" horiz-adv-x="250" />
<glyph unicode="&#xa5;" glyph-name="yen" horiz-adv-x="750" d="M515 0Q499 3 374 3Q251 3 235 0H224V46H257Q316 47 324 58Q327 62 327 137V213H133Q121 213 113 213T97 213T86 213T78 213T73 214T70 215T69 216T68 218T67 220Q64 225 66 231T73 240Q76 242
202 242H327V273L247 407H115Q81 407 75 408T67 414Q64 419 66 425T73 434Q76 436 153 436Q228 436 228 437Q227 440 173 530T115 623Q107 631 93 634Q66 637 31 637H11V683H20Q66 681 153 681H211Q279 681 288 683H298V637H280Q241 636 233 626Q230 623 230 621T250
584Q255 576 264 561T286 526T305 494L340 437L403 436H467L513 514Q560 590 562 596T564 605Q564 619 550 627T517 637H508V683H516Q534 680 633 680Q719 680 731 683H738V637H723Q644 632 617 595Q614 591 568 515T521 437T597 436T676 434Q681 432 683 426T682
414T671 409T589 407H503L422 273V242H547Q673 242 676 240Q681 238 683 232T682 220Q682 219 682 218T681 217T679 216T677 215T672 214T664 213T652 213T637 213T616 213H422V139Q422 64 424 60Q427 52 441 49Q456 46 503 46H525V0H515ZM449 406Q449 407 403
407Q358 407 358 406L370 387Q381 368 392 350L404 331Q447 404 449 406Z" />
<glyph unicode="&#xae;" glyph-name="registered" horiz-adv-x="947" d="M397 703Q422 709 464 709Q513 709 522 708Q640 693 730 627T870 464Q900 404 910 342Q915 315 915 287V266Q915 220 909 190Q883 37 761 -69T474 -175Q302 -175 175 -60Q63 41 38 190Q32
220 32 266V287Q32 314 37 342Q57 457 129 545Q179 607 249 648T397 703ZM519 668Q510 669 465 669H448Q364 662 299 630Q211 588 152 510T77 336Q72 312 72 285V266Q72 231 74 217Q91 79 190 -18T428 -133Q440 -135 474 -135Q507 -135 519 -133Q634 -120 727 -46Q756
-22 784 11Q858 102 873 217Q875 231 875 266V285Q875 312 870 336Q853 437 788 518Q686 648 519 668ZM424 0Q413 3 318 3T212 0H204V40H218Q237 40 243 41Q260 42 265 45T276 58V457Q271 464 269 466T261 470T243 473Q237 474 218 474H204V514H335Q477 514 499
510Q544 504 583 484T642 434Q661 407 661 375Q661 359 659 353Q651 322 622 297T556 257L547 253Q552 249 559 245Q590 224 602 201T626 124Q640 57 651 41Q663 23 683 23Q715 23 720 68Q721 78 724 81T740 84T756 82T760 70Q760 45 748 24T715 -7Q700 -14 673
-14Q669 -14 660 -14T647 -12Q552 0 534 67Q531 75 531 122T528 180Q517 222 472 236Q466 238 413 239H360V148L361 58Q365 48 370 46T393 41Q399 40 418 40H432V0H424ZM561 375Q561 424 544 443T482 472Q478 473 427 474Q415 474 403 474T384 474L376 473Q364
470 361 460Q360 458 360 366V276H416Q480 277 500 282Q525 288 542 305Q561 324 561 375Z" />
<glyph unicode="&#xf0;" glyph-name="eth" horiz-adv-x="556" d="M478 621Q469 615 456 615Q436 615 424 624L422 661V699L382 675L344 648Q353 639 366 630Q420 586 449 544Q491 479 504 413Q509 393 509 333Q509 266 506 246Q477 30 329 -16Q311 -21 275 -21Q226
-21 195 -10Q150 7 110 50T53 141Q42 179 42 227Q42 271 53 310Q65 353 94 392T160 453Q198 474 245 474Q286 474 322 457T380 415Q386 405 389 408Q389 426 378 475Q358 533 326 570Q320 577 310 586T291 601T282 606Q281 606 271 600T241 579T204 555L120 501Q116
500 102 500T82 501L75 506V566Q75 628 80 630Q83 635 102 635Q124 635 127 629T131 588L133 550L191 588L249 628L231 635Q176 654 124 657Q116 657 106 658L95 659Q94 661 94 687T95 715Q99 717 113 717Q199 717 282 679L309 668L331 681Q351 697 391 721Q428
748 435 748Q437 749 446 749Q470 749 473 746Q478 744 478 681V621ZM388 225Q388 377 309 410Q299 416 273 419Q216 419 191 390Q174 371 169 348T162 255V218Q162 112 184 79Q212 39 273 39Q312 39 342 62T380 121Q388 159 388 225Z" />
<glyph unicode="&#x127;" glyph-name="hbar" horiz-adv-x="540" d="M42 26L166 530Q166 534 161 534T129 535Q91 535 86 539Q74 548 74 562Q74 570 78 577Q84 587 92 588T138 592L182 595V599Q182 615 164 617Q155 619 133 619Q118 619 114 621T109 630Q109 636
114 656T122 681Q125 685 202 688Q272 695 286 695Q304 695 304 684Q304 682 295 644T282 597Q282 592 360 592Q437 592 446 586Q460 577 460 563Q460 552 451 541L442 535H266L251 468Q247 453 243 436T236 409T233 399Q233 395 244 404Q295 441 357 441Q402 441
434 423T478 375Q485 352 485 333Q485 282 435 141Q412 77 412 58Q412 44 426 44Q447 44 466 68Q485 87 500 130L509 152H531H550Q562 152 562 144Q562 134 551 108Q512 12 438 -10Q426 -13 415 -13Q385 -13 359 3T322 44Q318 52 318 77Q318 97 335 148Q386 286
386 337Q386 386 346 386Q318 386 286 370Q267 361 245 338T211 292Q205 285 173 157Q165 128 157 95T144 43T138 21Q128 7 122 4Q105 -12 83 -12Q66 -12 54 -2T42 26Z" />
<glyph unicode="&#x2c6;" glyph-name="circumflex" horiz-adv-x="2333" d="M2338 630Q2346 630 2346 618Q2346 616 2343 599Q2337 563 2332 561Q2329 561 1749 654Q1617 675 1466 699T1241 736T1167 748Q1165 748 1093 737T867 700T583 654Q3 561 1 561Q-5 563
-11 599Q-14 611 -14 618T-7 628T23 635Q31 636 36 637Q63 641 621 745Q1148 845 1165 845Q1167 845 1752 739L2338 630Z" />
<glyph unicode="&#x2dc;" glyph-name="tilde" horiz-adv-x="2333" d="M784 897Q792 898 826 898Q893 898 947 895Q1009 887 1056 872T1187 819Q1283 777 1340 762T1478 741Q1510 739 1527 739Q1787 739 2267 886Q2277 889 2288 892T2306 897T2313 899Q2320 899
2320 895Q2323 890 2327 860T2329 824Q2329 818 2296 795Q2273 787 2089 732Q1810 657 1598 632Q1562 629 1492 629Q1423 629 1396 632Q1325 641 1276 656T1144 708Q1050 750 993 765T853 786Q821 788 804 788Q544 788 64 641Q54 638 43 635T25 630T18 628Q11 628
11 632Q8 637 4 668T2 704Q2 713 36 732Q55 739 242 795Q568 884 784 897Z" />
<glyph unicode="&#x302;" glyph-name="uni0302" horiz-adv-x="0" d="M5 630Q13 630 13 618Q13 616 10 599Q4 563 -1 561Q-4 561 -584 654Q-716 675 -867 699T-1092 736T-1166 748Q-1168 748 -1240 737T-1466 700T-1750 654Q-2330 561 -2332 561Q-2338 563 -2344
599Q-2347 611 -2347 618T-2340 628T-2310 635Q-2302 636 -2297 637Q-2270 641 -1712 745Q-1185 845 -1168 845Q-1166 845 -581 739L5 630Z" />
<glyph unicode="&#x303;" glyph-name="tildecomb" horiz-adv-x="0" d="M-1549 897Q-1541 898 -1507 898Q-1440 898 -1386 895Q-1324 887 -1277 872T-1146 819Q-1050 777 -993 762T-855 741Q-823 739 -806 739Q-546 739 -66 886Q-56 889 -45 892T-27 897T-20 899Q-13
899 -13 895Q-10 890 -6 860T-4 824Q-4 818 -37 795Q-60 787 -244 732Q-523 657 -735 632Q-771 629 -841 629Q-910 629 -937 632Q-1008 641 -1057 656T-1189 708Q-1283 750 -1340 765T-1480 786Q-1512 788 -1529 788Q-1789 788 -2269 641Q-2279 638 -2290 635T-2308
630T-2315 628Q-2322 628 -2322 632Q-2325 637 -2329 668T-2331 704Q-2331 713 -2297 732Q-2278 739 -2091 795Q-1765 884 -1549 897Z" />
<glyph unicode="&#x3dd;" glyph-name="uni03DD" horiz-adv-x="778" d="M351 270Q375 270 391 270T421 270T440 269T454 268T462 266T469 264T477 261Q477 258 468 254Q456 250 348 250H235L155 -77L146 -82Q137 -85 109 -85Q55 -85 55 -77L139 261Q224 596 226
598Q229 603 239 603Q240 603 254 603T290 603T341 604T405 605T477 605Q656 603 687 602T719 596Q719 589 692 588T513 585H319L282 427L242 272Q242 270 351 270Z" />
<glyph unicode="&#x3f0;" glyph-name="uni03F0" horiz-adv-x="667" d="M691 434Q708 434 721 427T734 406Q734 394 719 381Q715 376 644 330L575 287L566 267Q543 233 526 176Q520 160 515 143T508 115T506 105Q506 103 533 103Q600 103 617 114Q621 118 641 118Q670
118 670 107Q670 100 661 85Q643 50 598 27T504 3Q465 3 450 36Q441 51 441 73Q441 84 444 96Q452 146 484 205L497 236L324 125Q143 12 135 10Q103 -6 77 -6Q61 -6 49 2T37 21Q37 36 49 46T124 96L195 141L204 156Q215 172 224 196Q237 228 252 273T264 323Q264
325 228 325Q166 322 153 314Q148 309 127 309Q108 309 104 314Q99 319 99 322T108 341Q125 376 171 400T268 425Q304 425 319 396Q328 377 328 358Q328 332 324 314Q311 270 286 221Q274 194 274 192H275Q339 234 484 325T639 421Q671 434 691 434Z" />
<glyph unicode="&#x2035;" glyph-name="uni2035" horiz-adv-x="275" d="M63 558Q73 560 77 560Q114 560 128 528Q133 518 188 293T244 61Q244 57 218 48Q202 43 195 43Q192 43 190 45T102 263T14 486Q12 496 12 501Q12 536 46 552Q56 558 63 558Z" />
<glyph unicode="&#x210f;" glyph-name="uni210F" horiz-adv-x="540" d="M150 475Q146 475 116 466T82 457Q73 457 64 467T54 487Q54 490 55 492Q63 506 64 506Q67 512 118 526Q162 541 169 546Q173 559 175 575Q181 596 181 604Q181 613 166 617Q164 617 153 618T135
619Q119 619 114 621T109 630Q109 636 114 656T122 681Q125 685 202 688Q272 695 286 695Q304 695 304 684Q304 682 291 628L278 577Q314 588 386 612Q466 635 476 635T492 627T499 607Q499 593 489 586Q485 583 373 546L262 512Q262 511 248 455T233 397T236 397T244
404Q295 441 357 441Q402 441 434 423T478 375Q485 352 485 333Q485 282 435 141Q412 77 412 58Q412 44 426 44Q447 44 466 68Q485 87 500 130L509 152H531H550Q562 152 562 144Q562 134 551 108Q512 12 438 -10Q426 -13 415 -13Q385 -13 359 3T322 44Q318 52 318
77Q318 97 335 148Q386 286 386 337Q386 386 346 386Q318 386 286 370Q267 361 245 338T211 292Q205 285 173 157Q165 128 157 95T144 43T138 21Q128 7 122 4Q105 -12 83 -12Q66 -12 54 -2T42 26Q42 45 98 257L151 475H150Z" />
<glyph unicode="&#x2127;" glyph-name="uni2127" horiz-adv-x="722" d="M276 33T360 33T488 87T533 231Q533 278 524 317T488 444Q447 581 442 648Q442 675 446 679Q448 684 542 684Q635 684 637 681Q640 678 657 594T675 501Q675 490 646 490Q624 490 622 493Q619
493 611 528Q600 584 593 584Q591 585 585 585T569 586T551 588H513L515 584Q526 546 582 453Q647 340 660 277Q663 259 663 232Q663 194 657 177Q651 146 624 104Q595 60 540 26T424 -19Q403 -22 360 -22Q318 -22 297 -19Q234 -7 180 26T95 104Q68 146 62 177Q56
194 56 229Q56 253 60 277Q71 339 137 453Q193 546 204 584L206 588H168Q160 587 150 587T134 586T126 584Q119 584 108 528Q100 493 97 493Q95 490 73 490Q44 490 44 501Q44 515 62 590Q75 672 82 679Q84 684 177 684Q271 684 275 679Q277 677 277 648Q271 570
231 444Q203 353 195 315T186 231Q186 141 231 87Z" />
<glyph unicode="&#x2132;" glyph-name="uni2132" horiz-adv-x="556" d="M457 681Q471 695 477 695Q485 695 497 681V12L484 -1H68Q55 15 55 19T68 39H457V328H215L211 335Q198 346 211 359L217 368H457V681Z" />
<glyph unicode="&#x2136;" glyph-name="uni2136" horiz-adv-x="667" d="M-9 -21Q-10 -19 -13 -17T-17 -12T-20 -7T-22 -1Q-22 4 -13 14T42 72L107 137H569V339Q569 541 567 546Q558 555 554 557L545 563H329Q118 566 101 569Q90 573 78 586Q54 610 54 661Q54 670
56 706Q56 750 62 757Q69 763 76 763T87 759T98 741Q108 726 116 721L127 717L340 715Q547 712 564 709Q575 705 587 692Q599 680 605 663L609 650V137H676Q687 124 687 115Q687 110 678 100T622 43L558 -21H-9Z" />
<glyph unicode="&#x2137;" glyph-name="uni2137" horiz-adv-x="444" d="M56 750Q68 764 76 764Q91 764 96 746Q103 723 125 717Q131 715 240 715T358 713Q421 692 421 640Q421 608 398 588Q374 568 358 566Q353 566 352 565T351 557L356 526Q356 486 376 361Q402
203 402 97Q400 21 385 -12Q366 -43 351 -43Q335 -43 329 -10Q316 40 316 64Q316 67 315 67Q313 67 269 26L222 -21H-9Q-10 -19 -13 -17T-17 -12T-20 -7T-22 -1Q-22 4 -14 14T42 73L107 137H311V564H211Q116 564 100 570Q72 580 60 615Q56 630 56 690V750Z" />
<glyph unicode="&#x2138;" glyph-name="uni2138" horiz-adv-x="667" d="M62 757Q69 764 75 764Q87 764 97 741Q102 731 105 728T117 721L129 715H349Q569 715 580 710Q618 701 635 670Q640 661 640 639Q640 609 622 590Q617 583 604 575T580 566H573V553Q574 549
575 538T577 521Q584 448 600 353Q617 247 620 209T624 104Q624 46 617 17T591 -32Q581 -43 573 -43Q570 -43 562 -39Q549 -30 540 44Q535 73 533 319V564H322Q117 566 100 570Q90 573 77 586Q54 609 54 663Q54 689 55 706Q55 738 56 745T62 757Z" />
<glyph unicode="&#x2141;" glyph-name="uni2141" horiz-adv-x="639" d="M247 290Q247 285 235 270H77V103Q77 88 77 80T77 63T78 50T80 43T82 38T85 35T89 32T95 30Q126 20 206 17Q289 17 330 30Q407 55 460 120T533 275Q538 305 538 342Q538 378 533 408Q513
511 447 579T288 661Q267 665 239 665Q158 665 86 626Q70 617 66 617Q59 617 53 623T46 637Q46 652 66 659Q129 695 197 701Q218 705 248 705Q293 705 335 693Q371 684 435 644Q543 562 573 417Q577 393 577 341Q577 290 573 266Q531 83 384 10Q346 -9 315 -16T234
-23H206Q191 -22 172 -22T142 -21T124 -19Q58 -6 44 24L37 35V297L50 310H235Q247 298 247 290Z" />
<glyph unicode="&#x2190;" glyph-name="arrowleft" horiz-adv-x="500" d="M205 417Q212 431 216 434T238 437H252Q275 437 281 435Q292 429 292 418Q292 409 287 400Q264 340 223 291Q216 282 213 277L211 275H306Q385 275 397 274T415 268Q422 259 422 250T415
232Q409 227 397 226T306 225H211L213 223Q216 218 223 209Q264 160 287 100Q292 91 292 82Q292 71 281 65Q278 64 250 64Q221 64 218 66Q210 70 205 83Q162 183 78 230Q64 238 64 250T78 270Q162 317 205 417Z" />
<glyph unicode="&#x2192;" glyph-name="arrowright" horiz-adv-x="500" d="M204 436Q205 437 233 437Q257 437 263 434Q270 430 275 417Q318 317 402 270Q417 261 417 250T402 230Q318 183 275 83Q270 70 263 66Q259 64 231 64Q202 64 199 65Q188 71 188 82Q188
91 193 100Q216 160 257 209Q264 218 267 223L269 225H174Q95 225 83 226T65 232Q58 241 58 250T65 268Q71 273 83 274T174 275H269L267 277Q264 282 257 291Q230 322 205 374Q188 408 188 417Q188 433 204 436Z" />
<glyph unicode="&#x219a;" glyph-name="uni219A" horiz-adv-x="1000" d="M942 256T942 250T928 230H511L457 148Q445 130 430 108T408 75T399 63Q394 60 389 60Q381 60 375 66T368 81Q368 88 415 159L462 230H175L188 214Q210 188 235 145T264 85Q264 75 260 74T231
72L206 74L191 103Q169 142 164 150Q130 195 64 239Q56 244 56 250T64 261Q115 294 142 323T191 397L206 428H231Q255 428 259 426T264 414Q260 397 235 355T188 288L175 272L331 270Q488 270 491 272Q491 275 542 353T597 432Q602 437 609 437Q617 437 622 432T628
417T582 341L537 272L735 270H931Q942 256 942 250Z" />
<glyph unicode="&#x219b;" glyph-name="uni219B" horiz-adv-x="1000" d="M54 250Q54 258 66 270H277L488 272L542 350Q594 429 597 432Q602 437 609 437Q617 437 622 432T628 417T582 341L537 272L608 270H751L822 272L808 288Q786 313 761 355T733 414Q733 424
737 426T766 428H793L806 397Q829 354 864 314Q896 284 928 263Q942 257 942 250T928 237Q887 208 864 185Q829 147 806 103L793 74L766 72Q742 72 738 73T733 85Q734 100 758 141T802 205Q814 219 817 225L822 230H511L457 148Q445 130 430 108T408 75T399 63Q394
60 389 60Q381 60 375 66T368 81Q368 88 415 159L462 230H264L66 232Q54 240 54 250Z" />
<glyph unicode="&#x219e;" glyph-name="uni219E" horiz-adv-x="1000" d="M196 411L199 417H221Q244 417 244 416Q244 414 228 379Q201 326 158 278L151 270H276L285 277Q361 336 388 417H434Q434 410 415 375Q388 322 349 279L340 270H634Q933 270 937 266L938
265Q944 259 944 250T938 235L937 234Q933 230 634 230H340L349 221Q388 178 415 125Q434 90 434 83H388Q361 164 285 223L276 230H151L158 222Q201 174 228 121Q244 86 244 84Q244 83 221 83H199L196 89Q167 167 98 221Q93 225 85 230T68 242T56 250Q58 252 60
253Q162 317 196 411Z" />
<glyph unicode="&#x21a0;" glyph-name="uni21A0" horiz-adv-x="1000" d="M565 417H611Q638 336 714 277L723 270H848L841 278Q798 326 771 379Q755 414 755 416Q755 417 778 417H801Q828 336 901 279Q906 275 914 270T931 258T943 250Q941 248 939 247Q833 181
801 83H778Q755 83 755 84Q755 86 771 121Q798 174 841 222L848 230H723L714 223Q638 164 611 83H565Q565 90 584 125Q611 178 650 221L659 230H365Q66 230 62 234L61 235Q55 241 55 250T61 265L62 266Q66 270 365 270H659L650 279Q611 322 584 375Q565 410 565
417Z" />
<glyph unicode="&#x21a2;" glyph-name="uni21A2" horiz-adv-x="1111" d="M196 411L199 417H221Q244 417 244 416Q244 414 228 379Q201 326 158 278L151 270H873L882 277Q958 336 985 417H1031Q1031 410 1012 375Q985 322 946 279L937 270V230L946 221Q985 178
1012 125Q1031 90 1031 83H985Q958 164 882 223L873 230H151L158 222Q201 174 228 121Q244 86 244 84Q244 83 221 83H199L196 89Q167 167 98 221Q93 225 85 230T68 242T56 250Q58 252 60 253Q162 317 196 411Z" />
<glyph unicode="&#x21a3;" glyph-name="uni21A3" horiz-adv-x="1111" d="M79 417H125Q152 336 228 277L237 270H959L952 278Q909 326 882 379Q866 414 866 416Q866 417 889 417H912Q939 336 1012 279Q1017 275 1025 270T1042 258T1054 250Q1052 248 1050 247Q944
181 912 83H889Q866 83 866 84Q866 86 882 121Q909 174 952 222L959 230H237L228 223Q152 164 125 83H79Q79 90 98 125Q125 178 164 221L173 230V270L164 279Q125 322 98 375Q79 410 79 417Z" />
<glyph unicode="&#x21ab;" glyph-name="uni21AB" horiz-adv-x="1000" d="M655 -41T642 -41T622 -27V230H151L158 222Q201 174 228 121Q244 86 244 84Q244 83 221 83H199L196 89Q167 167 98 221Q93 225 85 230T68 242T56 250Q58 252 60 253Q162 317 196 411L199
417H221Q244 417 244 416Q244 414 228 379Q201 326 158 278L151 270H622V305Q622 447 649 500Q686 575 785 575Q877 575 920 535T964 405Q964 330 931 290T825 238Q790 231 713 230H662V-27Q655 -41 642 -41ZM924 403Q924 473 894 504T794 536Q730 536 702 507T667
415Q663 381 662 319V270H699Q794 270 838 281T903 320Q924 347 924 403Z" />
<glyph unicode="&#x21ac;" glyph-name="uni21AC" horiz-adv-x="1000" d="M35 405Q35 575 195 575Q279 575 319 541T370 429Q377 384 377 305V270H848L841 278Q798 326 771 379Q755 414 755 416Q755 417 778 417H801Q827 341 901 279Q906 275 914 270T931 258T943
250Q941 248 939 247Q914 231 901 221Q826 157 801 83H778Q755 83 755 84Q755 86 771 121Q798 174 841 222L848 230H377V-27Q370 -41 357 -41Q342 -41 337 -25V230H286Q222 231 181 237T104 262T52 315T35 405ZM197 535Q133 535 104 503T75 406Q75 349 96 320T167
280Q211 270 300 270H337V319Q336 422 321 465Q303 521 240 534Q232 535 197 535Z" />
<glyph unicode="&#x21ad;" glyph-name="uni21AD" horiz-adv-x="1389" d="M57 250Q159 314 198 413L200 417H246L242 407Q215 340 159 278L152 270H276L315 310Q354 349 358 351Q366 356 376 351Q378 350 455 273L530 196L606 273Q683 350 686 351Q694 354 703
351Q705 350 782 273L858 196L933 273Q1010 350 1012 351Q1022 356 1030 351Q1034 349 1073 310L1112 270H1236L1229 278Q1173 340 1146 407L1142 417H1188Q1216 362 1222 352Q1264 289 1331 250Q1283 220 1260 194Q1216 150 1190 87L1188 83H1142L1146 93Q1173
160 1229 222L1236 230H1168Q1099 230 1095 232Q1090 234 1056 269L1021 304L984 267Q948 230 910 191T867 149Q857 144 848 150Q844 151 770 227T694 304T618 228T540 150Q531 144 521 149Q517 152 479 191T404 267L367 304L332 269Q298 234 293 232Q289 230 220
230H152L159 222Q215 160 242 93L246 83H223L200 84L195 96Q151 191 57 250Z" />
<glyph unicode="&#x21ae;" glyph-name="uni21AE" horiz-adv-x="1000" d="M491 272Q491 275 542 353T597 432Q602 437 609 437Q617 437 622 432T628 417T582 341L537 272L608 270H751L822 272L808 288Q786 313 761 355T733 414Q733 424 737 426T766 428H793L806
397Q829 354 864 314Q896 284 928 263Q942 257 942 250T928 237Q887 208 864 185Q829 147 806 103L793 74L766 72Q742 72 738 73T733 85Q734 100 758 141T802 205Q814 219 817 225L822 230H511L457 148Q445 130 430 108T408 75T399 63Q394 60 389 60Q381 60 375
66T368 81Q368 88 415 159L462 230H175L188 214Q210 188 235 145T264 85Q264 75 260 74T231 72L206 74L191 103Q169 142 164 150Q130 195 64 239Q56 244 56 250T64 261Q115 294 142 323T191 397L206 428H231Q255 428 259 426T264 414Q260 397 235 355T188 288L175
272L331 270Q488 270 491 272Z" />
<glyph unicode="&#x21b0;" glyph-name="uni21B0" horiz-adv-x="500" d="M65 561Q159 619 198 722H221Q244 722 244 721Q244 719 228 684Q199 628 161 587L151 576L291 575H292H293H294H296H297H298H299H300H301H302H304H305H306H307H308H309H310H311H312H314H315H316H317H318H319H320H321H322H323H324H325H327H328H329H330H331H332H333H334H335H336H337H338H339H340H341H342H343H345Q435
574 438 570L439 569L440 568Q444 564 444 287Q444 15 442 12Q436 0 424 0T406 12Q404 15 404 275V535H151L162 523Q202 479 227 428Q244 390 244 389H198L193 402Q164 471 106 519Q88 534 56 555Q60 558 65 561Z" />
<glyph unicode="&#x21b1;" glyph-name="uni21B1" horiz-adv-x="500" d="M301 722Q341 616 443 555Q396 521 393 519Q335 471 306 402L301 389H255Q255 390 272 428Q297 479 337 523L348 535H95V275Q95 15 93 12Q87 0 75 0T57 12Q55 15 55 287Q55 564 59 568L60
569Q64 573 76 573T208 575L348 576L338 587Q300 628 271 684Q255 719 255 721Q255 722 278 722H301Z" />
<glyph unicode="&#x21b6;" glyph-name="uni21B6" horiz-adv-x="1000" d="M510 459Q532 461 551 461Q602 461 633 455Q709 438 784 386Q835 344 861 301Q902 245 926 173T950 32Q950 15 944 8Q930 -6 917 8Q910 12 910 43Q903 166 840 263T677 399Q623 421 561
421Q453 421 359 359Q300 319 263 258T217 126L216 125Q216 124 216 123T217 122Q219 122 229 131T260 156T301 181Q314 189 336 199T361 210T368 206Q373 201 373 177Q373 152 370 150Q359 143 348 139Q257 97 210 17L201 1Q197 -1 196 -1Q189 -1 184 8Q129 101
41 139Q24 145 19 150Q17 152 17 179Q17 203 21 208Q28 210 39 206Q106 178 157 135L175 119V126Q179 130 179 155Q182 173 193 201Q228 305 312 374T510 459Z" />
<glyph unicode="&#x21b7;" glyph-name="uni21B7" horiz-adv-x="1000" d="M386 459Q396 460 426 460Q482 460 504 455Q571 444 637 408Q683 381 723 339T786 250Q800 224 811 188T822 132Q822 123 825 123T842 135Q892 177 959 206Q970 210 977 208Q982 203 982
179Q982 152 979 150Q974 145 957 139Q915 121 878 86T815 8Q808 -1 803 -1Q801 -1 797 1Q797 4 788 17Q741 97 650 139L628 150Q626 152 626 177Q626 201 630 206Q636 210 637 210Q650 210 697 181Q727 166 764 137L784 119L782 132Q767 239 689 318T499 417Q474
421 442 421Q343 421 261 369T130 219Q86 121 86 28Q86 15 79 8Q73 1 66 1T53 8Q46 15 46 30Q46 137 97 237Q131 306 186 361Q274 443 386 459Z" />
<glyph unicode="&#x21ba;" glyph-name="uni21BA" horiz-adv-x="778" d="M369 543T369 563T397 583Q408 583 440 579L454 577L464 581Q513 600 552 639Q563 650 565 650L607 637Q579 600 523 568L510 560L519 556Q575 534 626 485Q722 382 722 250Q722 228 720
214Q705 98 626 15Q586 -23 540 -47Q468 -83 387 -83Q337 -83 289 -68Q211 -43 151 15Q56 117 56 250Q56 279 57 286Q68 374 116 441T235 545Q248 552 255 550Q270 545 270 531Q270 526 267 521Q265 517 246 506Q193 475 159 433Q95 352 95 250Q95 132 177 47Q260
-42 388 -42Q511 -42 596 42T682 250Q682 295 666 345Q628 457 522 511Q495 526 488 526Q488 524 485 515L490 506Q517 460 528 413Q535 387 535 384L532 385Q529 386 524 387T513 390L491 397L488 408Q469 493 417 538L413 542L399 543Q369 543 369 563Z" />
<glyph unicode="&#x21bb;" glyph-name="uni21BB" horiz-adv-x="778" d="M170 637L213 650Q219 645 225 639Q267 599 313 581L323 577L337 579Q369 583 380 583Q408 583 408 563T378 543L364 542Q344 522 332 506Q301 463 289 408L286 397L264 390Q259 389 254
388T245 385L242 384Q242 387 249 413Q260 460 287 506L292 515Q289 524 289 526Q282 526 255 511Q149 457 111 345Q95 300 95 249Q95 134 170 53T355 -41Q362 -42 388 -42Q511 -42 596 42T682 250Q682 286 673 322Q659 380 621 429T532 506Q512 517 510 521Q507
526 507 531Q507 545 522 550Q529 552 542 545Q609 513 656 449T717 308Q721 286 721 250T717 192Q698 76 606 -3T388 -83Q360 -83 337 -79Q225 -61 148 18T57 214Q56 221 56 250T57 286Q72 402 151 485Q202 534 258 556L267 560L254 568Q211 592 170 637Z" />
<glyph unicode="&#x21be;" glyph-name="uni21BE" horiz-adv-x="417" d="M188 258V694H208L215 682Q257 607 332 569Q353 557 375 551V528Q375 505 374 505Q372 505 339 515Q281 537 237 578L228 587V205Q228 -178 226 -182Q221 -194 208 -194T190 -182Q188 -178 188 258Z" />
<glyph unicode="&#x21bf;" glyph-name="uni21BF" horiz-adv-x="417" d="M201 682L208 694H228V258Q228 -178 226 -182Q221 -194 208 -194T190 -182Q188 -178 188 205V587L179 578Q135 537 77 515Q44 505 42 505Q41 505 41 528V551Q72 559 110 584Q169 623 201 682Z" />
<glyph unicode="&#x21c2;" glyph-name="uni21C2" horiz-adv-x="417" d="M190 682Q195 694 208 694T226 683Q228 679 228 296V-87L237 -78Q281 -37 339 -15Q372 -5 374 -5Q375 -5 375 -28V-51Q344 -59 306 -84Q247 -123 215 -182L208 -194H188V242Q188 678 190 682Z" />
<glyph unicode="&#x21c3;" glyph-name="uni21C3" horiz-adv-x="417" d="M190 682Q195 694 208 694T226 683Q228 679 228 242V-194H208L201 -182Q159 -107 84 -69Q63 -57 41 -51V-28Q41 -5 42 -5Q44 -5 77 -15Q135 -37 179 -78L188 -87V295Q188 678 190 682Z" />
<glyph unicode="&#x21c4;" glyph-name="uni21C4" horiz-adv-x="1000" d="M755 666Q755 667 778 667H801Q827 591 901 529Q906 525 914 520T931 508T943 500Q941 498 939 497Q833 431 801 333H778Q755 333 755 334Q755 336 771 371Q798 424 841 472L848 480H459Q70
480 67 482Q55 488 55 500T67 518Q70 520 459 520H848L841 528Q798 576 771 629Q755 664 755 666ZM65 173Q157 230 198 333H221Q244 333 244 332T228 296Q203 244 161 198L151 187H539Q928 187 930 186Q944 182 944 167Q944 155 934 149Q930 147 541 147H151L160
137Q201 91 230 34L244 1Q244 0 221 0H199Q156 106 63 162L56 167Q60 170 65 173Z" />
<glyph unicode="&#x21c6;" glyph-name="uni21C6" horiz-adv-x="1000" d="M196 661L199 667H221Q244 667 244 666Q244 664 228 629Q201 576 158 528L151 520H539Q928 520 932 518Q944 513 944 500T932 482Q928 480 539 480H151L158 472Q201 424 228 371Q244 336
244 334Q244 333 221 333H199L196 339Q167 417 98 471Q93 475 85 480T68 492T56 500Q58 502 60 503Q162 567 196 661ZM755 331T755 332T778 333H801Q835 249 896 200Q904 194 943 167Q940 164 936 162Q891 135 855 93T801 0H778Q755 0 755 1T758 9T765 25T771 39Q800
94 839 137L848 147H458Q68 147 66 149Q55 154 55 167Q55 182 69 186Q71 187 460 187H848L838 198Q796 244 771 296Q755 331 755 332Z" />
<glyph unicode="&#x21c7;" glyph-name="uni21C7" horiz-adv-x="1000" d="M930 437Q944 427 944 416Q944 406 934 399Q930 397 540 397H150L159 387Q207 338 235 273Q237 269 238 265T241 258T243 254Q245 249 235 227Q207 162 159 113L150 103H540Q930 103 934
101Q944 94 944 84Q944 71 930 64L540 63H151Q183 31 213 -18Q219 -28 231 -54T244 -83H198Q179 -33 144 9T66 77L55 83L65 89Q156 145 197 246Q199 250 190 269Q150 359 65 411L55 417L66 423Q109 449 144 491T198 583H244Q242 580 231 554T213 518Q183 469 151
437H930Z" />
<glyph unicode="&#x21c8;" glyph-name="uni21C8" horiz-adv-x="833" d="M247 -193Q238 -193 230 -181V599L220 590Q179 551 120 521Q88 505 84 505Q83 505 83 528V551Q184 584 250 694Q252 689 256 684Q300 610 380 567Q409 551 416 551T452 567Q532 610 577 684L582
694L587 686Q637 603 722 563Q740 554 749 551V528Q749 505 748 505Q743 505 713 521Q654 550 612 590L602 599V-181Q594 -193 585 -193H582Q570 -193 563 -179L562 209V598L552 589Q500 540 438 514Q417 504 412 506L406 509Q399 512 394 514Q332 540 280 589L270
598V-179Q260 -193 250 -193H247Z" />
<glyph unicode="&#x21c9;" glyph-name="uni21C9" horiz-adv-x="1000" d="M55 416Q55 428 70 437H848Q816 469 786 518Q780 528 768 554T755 583H801Q820 533 855 491T933 423L944 417L934 411Q842 353 802 254Q800 250 809 231Q849 141 934 89L944 83L933 77Q890
51 855 9T801 -83H755Q757 -80 768 -54T786 -18Q816 31 848 63H459L70 64Q55 71 55 84Q55 94 65 101Q69 103 459 103H849L840 113Q792 162 764 227Q754 249 756 254Q756 255 757 257T760 264T764 273Q792 338 840 387L849 397H459Q69 397 65 399Q55 406 55 416Z"
/>
<glyph unicode="&#x21ca;" glyph-name="uni21CA" horiz-adv-x="833" d="M250 -194Q179 -83 83 -51V-28Q83 -5 84 -5Q88 -5 120 -21Q179 -51 220 -90L230 -99V681Q241 694 251 694Q259 693 270 680V-98L280 -89Q332 -40 394 -14Q399 -12 406 -9L412 -6Q417 -4 438
-14Q500 -40 552 -89L562 -98V291L563 680Q570 693 582 693Q593 694 602 681V-99L612 -90Q654 -50 713 -21Q743 -5 748 -5Q749 -5 749 -28V-51Q740 -54 722 -63Q637 -103 587 -186L582 -194L577 -184Q532 -110 452 -67Q423 -51 416 -51T380 -67Q300 -110 255 -184L250
-194Z" />
<glyph unicode="&#x21cb;" glyph-name="uni21CB" horiz-adv-x="1000" d="M195 504L198 514H221Q244 514 244 512Q244 509 233 476Q212 420 171 376L162 367H545Q928 367 932 365Q944 360 944 347T932 329Q928 327 492 327H55V347L67 354Q160 406 195 504ZM67 171Q70
173 507 173H944V153L932 146Q839 95 804 -4L801 -14H778Q755 -14 755 -12Q755 -11 766 25Q788 80 828 124L837 133H454Q71 133 67 135Q55 140 55 153Q55 165 67 171Z" />
<glyph unicode="&#x21cc;" glyph-name="uni21CC" horiz-adv-x="1000" d="M755 512Q755 514 778 514H801L804 503Q805 501 809 491T817 475Q854 398 932 354L944 347V327H507Q70 327 67 329Q55 335 55 347T67 365Q70 367 454 367H837L828 376Q787 420 766 476Q755
509 755 512ZM55 153V173H492Q928 173 932 171Q944 166 944 153T932 135Q928 133 545 133H162L171 124Q211 80 233 25Q244 -11 244 -12Q244 -14 221 -14H198L195 -4Q178 44 144 83T67 146L55 153Z" />
<glyph unicode="&#x21cd;" glyph-name="uni21CD" horiz-adv-x="1000" d="M941 151Q941 145 928 132H568L537 54Q510 -9 503 -22T486 -35Q479 -35 473 -29T466 -17T495 61L526 132H319L331 118Q376 67 408 7Q418 -12 418 -17Q418 -23 415 -24T401 -26Q398 -26 397
-26L384 -24L377 -13Q280 172 86 232Q61 239 55 245Q54 253 59 256T86 267Q281 327 377 512L384 525H397Q417 521 418 516Q418 511 408 492Q382 443 331 381L319 367H473L624 369L657 445Q687 519 695 527Q701 534 709 534Q715 534 721 529T728 516Q728 510 695
434Q689 418 683 402T672 377T668 367H928Q942 355 942 347Q942 341 928 327H791Q651 327 651 325Q650 324 618 249L586 174Q586 172 757 172H928Q941 159 941 151ZM606 325Q606 327 439 327H275Q256 311 179 265L148 249Q162 241 177 234Q221 211 262 181L275
172H544L575 247L606 325Z" />
<glyph unicode="&#x21ce;" glyph-name="uni21CE" horiz-adv-x="1000" d="M602 516L557 367H651L742 370L731 383Q689 435 657 505Q655 516 660 521Q662 525 677 525T695 519Q695 515 709 487Q743 414 808 354T949 263Q967 258 964 245Q959 240 949 236Q873 206
808 146T709 12Q695 -14 695 -19Q692 -26 677 -26T660 -21Q655 -17 657 -6Q685 49 702 76Q703 78 713 89T732 111T740 130Q740 132 613 132H482L460 54Q440 -9 433 -23T415 -37Q408 -37 402 -31T395 -19Q395 -18 398 -8T406 22T417 59Q440 120 440 132H255L266
116Q308 64 340 -6Q342 -17 337 -21Q335 -26 320 -26T302 -19Q302 -16 289 12Q254 85 189 145T49 236Q30 243 33 254Q40 261 49 263Q124 293 189 353T289 487Q302 517 302 519Q305 525 320 525T337 521Q342 516 340 505Q308 435 266 383L255 370L384 367H515Q561
522 569 530Q574 534 580 534T594 528T602 516ZM502 325Q502 327 360 327H217L195 310Q173 291 120 256L111 250Q115 245 120 243Q154 225 195 190L217 172H335L453 174L502 325ZM886 250Q821 293 802 310L780 327H544L535 299Q531 283 511 223L495 174L637 172H780L802
190Q843 225 877 243L886 250Z" />
<glyph unicode="&#x21cf;" glyph-name="uni21CF" horiz-adv-x="1000" d="M56 341T56 348T68 367H428L459 445Q493 523 499 529Q504 534 510 534Q515 534 523 528T531 516Q531 515 502 438L471 367H677L666 381Q618 435 588 492Q578 511 578 516Q578 525 596 525Q598
525 599 525H615L619 512Q717 327 911 267Q930 262 942 254Q943 246 938 243T911 232Q718 172 619 -13L615 -24L599 -26Q598 -26 596 -26Q578 -26 578 -17Q578 -12 588 7Q612 52 666 118L677 132H373L339 54Q312 -18 302 -28Q296 -35 288 -35Q282 -35 276 -30T269
-17Q269 -14 298 57T328 132H68Q55 145 55 152T68 172H206Q346 172 346 174Q351 179 377 249Q384 264 392 284T405 314T411 325Q411 327 239 327H68Q56 341 56 348ZM735 318L722 327H455L422 252L391 174Q391 172 557 172H722L735 181Q773 210 819 234L848 249Q835
258 819 265Q773 289 735 318Z" />
<glyph unicode="&#x21da;" glyph-name="uni21DA" horiz-adv-x="1000" d="M944 54Q943 43 929 36H372L373 34Q374 32 376 28T381 20Q404 -18 422 -58Q442 -109 442 -110T408 -111H374L370 -100Q283 122 87 243L76 250L87 257Q284 377 370 600L374 611H408Q442 611
442 610T422 558Q404 518 381 480Q380 478 379 475T376 471T374 468T372 465V464H929Q943 457 944 446Q944 434 928 424H344L336 414Q277 335 200 277L191 270H560Q929 270 933 268Q944 262 944 249Q944 237 933 232Q929 230 560 230H191L200 223Q279 162 336 86L344
76H928Q944 66 944 54Z" />
<glyph unicode="&#x21db;" glyph-name="uni21DB" horiz-adv-x="1000" d="M56 250Q56 260 68 270H808L799 277Q720 338 663 414L655 424H363Q71 424 68 426Q55 432 55 444T68 462Q71 464 349 464H627L626 466Q625 468 623 472T618 480Q595 518 577 558Q557 609
557 610T591 611H626L629 600Q716 378 912 257L923 250L912 243Q715 123 629 -100L626 -111H591Q557 -111 557 -110T577 -58Q595 -18 618 20Q619 22 620 25T623 29T625 32T626 35L627 36H349Q71 36 68 38Q55 44 55 56T68 74Q71 76 363 76H655L663 86Q722 165 799
223L808 230H438L68 231Q56 238 56 250Z" />
<glyph unicode="&#x21dd;" glyph-name="uni21DD" horiz-adv-x="1000" d="M755 416Q755 417 778 417H801Q828 336 901 279Q906 275 914 270T931 258T943 250Q941 248 939 247Q833 181 801 83H778Q755 83 755 84Q755 86 771 121Q798 174 841 222L848 230H737Q625
230 622 232L537 306Q537 305 451 228T362 149Q353 146 345 149Q341 150 255 227T169 306Q167 306 129 270Q121 263 109 253T92 237T85 232Q79 230 77 230Q69 230 63 236T56 250Q56 252 58 258Q59 260 70 270T95 294T124 320T148 342L159 351Q168 356 177 351L218
316L303 239L353 195Q376 214 403 239L488 316L529 351Q538 356 546 351Q548 350 594 310L638 270H848L841 278Q798 326 771 379Q755 414 755 416Z" />
<glyph unicode="&#x21e0;" glyph-name="uni21E0" horiz-adv-x="1334" d="M205 417Q212 431 216 434T238 437H252Q275 437 281 435Q292 429 292 418Q292 409 287 400Q264 340 223 291Q216 282 213 277L211 275H306Q385 275 397 274T415 268Q422 259 422 250T415
232Q409 227 397 226T306 225H211L213 223Q216 218 223 209Q264 160 287 100Q292 91 292 82Q292 71 281 65Q278 64 250 64Q221 64 218 66Q210 70 205 83Q162 183 78 230Q64 238 64 250T78 270Q162 317 205 417ZM501 237T501 250T515 270H819Q834 262 834 250T819
230H515Q501 237 501 250ZM918 237T918 250T932 270H1236Q1251 262 1251 250T1236 230H932Q918 237 918 250Z" />
<glyph unicode="&#x21e2;" glyph-name="uni21E2" horiz-adv-x="1334" d="M84 237T84 250T98 270H402Q417 262 417 250T402 230H98Q84 237 84 250ZM501 237T501 250T515 270H819Q834 262 834 250T819 230H515Q501 237 501 250ZM1038 436Q1039 437 1067 437Q1091
437 1097 434Q1104 430 1109 417Q1152 317 1236 270Q1251 261 1251 250T1236 230Q1152 183 1109 83Q1104 70 1097 66Q1093 64 1065 64Q1036 64 1033 65Q1022 71 1022 82Q1022 91 1027 100Q1050 160 1091 209Q1098 218 1101 223L1103 225H1008Q929 225 917 226T899
232Q892 241 892 250T899 268Q905 273 917 274T1008 275H1103L1101 277Q1098 282 1091 291Q1064 322 1039 374Q1022 408 1022 417Q1022 433 1038 436Z" />
<glyph unicode="&#x2201;" glyph-name="uni2201" horiz-adv-x="500" d="M137 107Q145 84 177 71T251 58Q289 58 320 70T361 101L364 107V172Q364 234 367 242Q377 269 404 269Q425 269 444 240V172Q444 103 443 96Q432 43 380 11T250 -21T120 10T58 96Q56 103
56 413Q56 722 58 729Q66 772 101 801T192 841Q210 846 229 846H243Q282 846 290 845Q423 824 443 729Q444 722 444 653V586Q428 556 404 556Q377 556 367 583Q364 590 364 654V719Q363 721 360 726T355 733Q326 766 250 766Q211 766 179 755T137 719V107Z" />
<glyph unicode="&#x2204;" glyph-name="uni2204" horiz-adv-x="556" d="M55 676Q55 685 66 694H199L333 696L351 772Q363 828 368 841T382 859Q383 860 386 860Q393 860 399 854T406 841Q406 836 391 765L375 696Q375 694 431 694H484L491 688L497 681V12L493
5L486 1L353 -1H219L202 -79Q183 -158 179 -161Q174 -166 165 -166Q146 -166 146 -148Q146 -141 161 -76T177 -4Q177 -1 122 -1H68Q55 12 55 20T66 39H126L186 41L219 181Q226 215 234 251T246 305T251 325Q251 328 166 328H79Q69 340 69 347Q69 353 75 359L82
368H262L291 505Q298 539 306 575T319 630T324 650V654H68Q55 670 55 676ZM457 368V654H411Q366 654 366 652Q365 651 361 634T349 580T333 514Q303 373 302 372V368H457ZM457 39V328H375Q293 328 293 325Q292 322 260 183T228 41T344 39H457Z" />
<glyph unicode="&#x2205;" glyph-name="emptyset" horiz-adv-x="778" d="M699 587Q707 587 713 582T720 568T713 553Q712 552 688 531T643 490T624 470Q624 469 626 466T630 459T635 450Q683 376 683 291Q683 265 679 241Q662 151 599 86Q530 16 437 -1Q425 -2
387 -2T337 -1Q245 18 193 70L179 81L131 39Q96 8 89 3T75 -3Q55 -3 55 17Q55 24 61 30T111 73Q154 113 151 113Q151 114 149 117T144 124T139 133Q106 185 95 241Q94 253 94 291T95 341Q112 431 173 495Q265 587 385 587Q410 587 437 581Q522 571 582 513L595
501L642 541Q689 586 695 586Q696 586 697 586T699 587ZM448 539Q428 546 375 546Q357 546 339 544Q271 531 219 484T144 370Q133 332 133 279Q136 228 151 195Q157 179 168 160T184 141Q186 141 375 307T564 477Q550 491 519 510Q490 529 448 539ZM642 290Q642
366 606 424Q604 428 601 431T597 437T594 441T593 444Q590 444 402 277T213 108Q213 100 255 73Q282 55 326 44Q346 37 392 37Q408 37 426 39Q508 51 568 111T639 253Q642 268 642 290Z" />
<glyph unicode="&#x220d;" glyph-name="uni220D" horiz-adv-x="429" d="M154 -1Q122 -1 112 3T102 26Q102 46 118 57Q132 63 178 63Q192 64 206 65T228 66T240 68Q301 85 324 146L329 157H244Q158 157 153 161Q149 162 145 169T140 183Q140 201 158 215L167 221H256L344
223L349 237Q352 262 352 287Q352 308 351 315Q332 385 256 385Q216 385 164 355Q154 346 149 346T138 362T132 388Q132 396 147 406Q195 440 252 440Q291 440 318 435Q422 404 451 301Q456 288 456 248Q456 206 451 188Q432 119 374 70T240 3Q212 -1 154 -1Z"
/>
<glyph unicode="&#x2212;" glyph-name="minus" horiz-adv-x="500" d="M84 237T84 250T98 270H402Q417 262 417 250T402 230H98Q84 237 84 250Z" />
<glyph unicode="&#x2214;" glyph-name="uni2214" horiz-adv-x="778" d="M339 717Q339 737 353 751T388 766T423 751T439 716T424 681T390 666Q369 666 354 680T339 717ZM57 237T57 250T71 270H369V425L370 581Q380 594 389 594Q402 594 409 579V270H707Q722 262
722 250T707 230H409V-79Q402 -93 389 -93T369 -79V230H71Q57 237 57 250Z" />
<glyph unicode="&#x2216;" glyph-name="uni2216" horiz-adv-x="778" d="M91 410Q91 417 97 423T111 430Q117 430 395 224Q676 13 678 10Q685 3 685 -3Q685 -10 678 -16T664 -23Q658 -23 380 184T98 397Q91 404 91 410Z" />
<glyph unicode="&#x221d;" glyph-name="proportional" horiz-adv-x="778" d="M722 48Q722 28 698 28Q649 28 604 50T531 107Q505 138 493 174L490 184Q467 131 448 107Q421 73 373 51T277 28Q198 28 136 79Q99 110 77 154Q56 202 56 250Q56 300 78 348Q106 402
157 437T276 472Q327 472 372 450T448 393Q474 362 486 326L489 316Q512 369 531 393Q559 427 604 449T698 472Q722 472 722 452Q722 434 693 432Q620 427 571 377Q520 323 520 250Q520 173 570 123T693 68Q722 66 722 48ZM278 68Q356 68 407 121T459 250Q459 286
447 317Q429 361 392 391T308 430Q302 431 273 431Q199 431 148 378T96 250Q96 177 147 123Q186 82 248 70Q260 68 278 68Z" />
<glyph unicode="&#x2220;" glyph-name="angle" horiz-adv-x="722" d="M71 0Q55 9 55 20Q55 22 57 28Q67 43 346 361Q632 690 638 692T647 694Q655 694 660 689T666 674Q666 668 663 663Q662 662 627 622T524 503T390 350L120 41L386 40H653Q666 31 666 20Q666
7 651 0H71Z" />
<glyph unicode="&#x2221;" glyph-name="uni2221" horiz-adv-x="722" d="M71 0Q55 9 55 20Q55 22 57 28Q64 38 348 373T638 712Q644 714 646 714Q653 714 659 709T666 694Q666 688 663 683Q656 676 493 484T329 288Q329 286 337 276T359 247T387 202T414 137T433
54L434 40H651Q666 32 666 20T651 0H436Q431 -20 416 -20Q400 -20 396 -4V0H71ZM319 234L302 256L119 41L256 40H394Q394 50 387 83Q366 174 319 234Z" />
<glyph unicode="&#x2222;" glyph-name="uni2222" horiz-adv-x="722" d="M666 -32Q666 -40 660 -45T646 -51Q641 -51 365 85L75 228Q60 235 58 241Q55 246 55 250T58 259Q60 265 72 270L611 536Q642 551 647 551Q654 551 660 546T666 532Q666 521 657 515L525 449L526
446Q527 444 528 440T531 432Q566 344 566 250T531 68Q530 64 529 60T526 54L525 51L657 -15Q666 -21 666 -32ZM526 250Q526 331 495 416Q489 431 488 431T304 341T121 250T304 159T488 69Q492 69 504 111Q526 177 526 250Z" />
<glyph unicode="&#x2223;" glyph-name="uni2223" horiz-adv-x="222" d="M91 417Q104 430 111 430T131 417V-10Q115 -23 111 -23T91 -10V417Z" />
<glyph unicode="&#x2224;" glyph-name="uni2224" horiz-adv-x="278" d="M118 737Q129 750 138 750L151 746L158 739V579L160 421L213 470Q269 519 276 519Q284 519 290 513T296 499V498Q296 493 291 488T244 445Q225 428 213 417L158 368V-239Q142 -252 136 -252L124
-248L120 -241L118 44V328L62 279Q4 231 0 230Q-8 230 -14 236T-20 250Q-20 257 -11 265T62 332L118 384V737Z" />
<glyph unicode="&#x2225;" glyph-name="uni2225" horiz-adv-x="389" d="M55 417Q69 431 76 431T95 419V-12Q84 -23 76 -23Q71 -23 55 -10V417ZM331 -10Q315 -23 309 -23L297 -19L293 -12V419L297 426Q304 431 310 431L324 424L331 417V-10Z" />
<glyph unicode="&#x2226;" glyph-name="uni2226" horiz-adv-x="500" d="M131 737Q144 750 151 750T171 737V199L327 357V737Q340 750 347 750T367 737V397L429 457Q493 518 498 519Q504 519 511 512T518 500Q518 489 442 417L367 339V-237Q354 -250 346 -250L333
-243L327 -237V301L171 143V-237Q155 -250 151 -250Q144 -250 131 -237V101L69 41Q24 -3 15 -12T0 -21Q-6 -21 -13 -15T-20 -2Q-20 5 -7 19T56 81L131 159V737Z" />
<glyph unicode="&#x2234;" glyph-name="therefore" horiz-adv-x="667" d="M273 411Q273 437 290 454T334 471Q358 471 375 454T393 411T376 369T333 351T291 368T273 411ZM143 4T143 -22T126 -65T83 -82T41 -65T24 -22T41 21T84 38T126 21ZM609 -82T583 -82T541
-65T524 -22T541 21T584 38Q609 38 626 21T643 -22T626 -65Z" />
<glyph unicode="&#x2235;" glyph-name="uni2235" horiz-adv-x="667" d="M23 411Q23 437 40 454T84 471Q108 471 125 454T143 411T126 369T83 351T41 368T23 411ZM523 411Q523 437 540 454T584 471Q608 471 625 454T643 411T626 369T583 351T541 368T523 411ZM359
-82T333 -82T291 -65T274 -22T291 21T334 38Q359 38 375 21T392 -22T376 -65Z" />
<glyph unicode="&#x223c;" glyph-name="similar" horiz-adv-x="778" d="M73 132Q55 132 55 172Q55 219 79 272Q95 301 111 319Q148 353 195 363Q199 364 212 364Q244 364 266 359Q310 348 408 272Q472 222 522 212Q537 208 555 208Q606 208 646 243Q682 279 688
330Q692 359 702 365Q713 365 716 353T719 314Q714 238 668 185T549 132Q532 132 524 134Q473 146 402 199Q331 253 300 269T231 290H223Q163 290 124 248Q86 207 86 165Q86 155 82 144T73 132Z" />
<glyph unicode="&#x223d;" glyph-name="uni223D" horiz-adv-x="778" d="M550 367Q628 367 673 310T722 171Q722 146 716 139Q713 133 708 133T699 141T694 162Q694 207 668 248Q627 311 555 311Q522 311 491 296Q459 281 396 225Q332 168 297 151Q258 133 222
133Q188 133 157 149Q113 172 85 222T56 335Q56 362 66 365Q71 369 77 364Q82 358 85 331T90 298Q102 252 137 221T223 189Q265 189 306 214Q334 232 383 275Q446 332 482 349Q517 366 550 367Z" />
<glyph unicode="&#x2241;" glyph-name="uni2241" horiz-adv-x="778" d="M73 132Q55 132 55 172Q55 219 79 272Q95 301 111 319Q153 359 213 366H220Q283 366 366 303Q389 288 391 288T395 290Q398 293 464 370Q539 462 548 466Q550 467 553 467Q560 467 566 461T573
448Q573 439 499 350Q424 266 424 261Q424 260 434 253T459 237T482 226Q516 209 554 209Q607 209 646 243Q682 279 688 330Q692 359 702 366Q708 366 711 363T716 351T718 335T719 314Q716 265 695 226Q682 199 664 179Q622 139 562 132H555Q493 132 408 194Q387
210 383 210L379 208Q371 200 306 123T233 37Q228 32 220 32Q213 32 207 36T201 48Q201 57 266 137Q272 144 275 148Q351 231 351 237Q351 238 341 245T316 261T293 272Q256 289 221 289Q187 289 157 274Q144 268 124 248Q86 207 86 166Q86 156 82 145T73 132Z"
/>
<glyph unicode="&#x2242;" glyph-name="uni2242" horiz-adv-x="778" d="M55 436T55 443T68 463H706Q720 449 720 443T706 423H68Q55 436 55 443ZM717 221Q717 144 669 89T554 34Q529 34 502 43Q457 57 397 107Q327 166 293 183Q252 201 222 201Q168 201 126 161Q90
125 84 67Q81 34 71 34Q56 37 56 72Q56 88 57 96Q70 164 113 212Q162 257 224 257Q259 257 294 240T359 199T418 149T483 107T553 90Q609 90 647 128T691 223Q693 257 704 257Q709 257 713 252Q717 245 717 221Z" />
<glyph unicode="&#x2246;" glyph-name="uni2246" horiz-adv-x="778" d="M70 383Q55 383 55 417Q55 465 81 503T146 561Q181 578 222 578Q259 578 294 564T393 507Q413 493 434 480T469 460T484 454L537 549Q587 639 595 647Q600 652 607 652Q615 652 621 647T628
634Q628 625 575 536Q524 446 524 443Q527 440 555 440Q610 440 648 471T691 547Q694 578 706 578T718 556Q718 555 718 551T717 545Q717 488 684 445T595 387Q582 384 558 384Q530 384 508 389L493 394L404 238L557 236H708Q720 224 720 217T706 196H379L291 43L499
41H708Q720 29 720 21T706 1H268L226 -71Q186 -143 179 -148Q173 -155 165 -155T152 -150T146 -137Q146 -133 184 -64L222 1H144L66 3L59 7Q54 14 54 20Q54 29 66 41H246L333 194Q333 196 202 196H68Q55 212 55 218Q55 225 66 236H213L357 238L457 409L437 421Q433
423 375 461Q302 506 262 518Q246 523 222 523Q171 523 129 491T84 414Q82 383 70 383Z" />
<glyph unicode="&#x2248;" glyph-name="approxequal" horiz-adv-x="778" d="M55 326Q55 393 101 437T226 481Q263 479 297 467T391 419Q457 383 486 372T555 361Q622 361 662 401Q686 423 688 450Q693 479 702 479L703 480Q704 480 705 480Q719 480 719 442Q719
371 672 329T554 286Q515 286 482 298T384 346Q326 380 302 388Q263 404 220 404Q179 404 144 388Q129 382 111 363Q86 339 86 317Q86 306 82 297T71 288Q55 288 55 326ZM86 81Q86 70 82 61T71 52Q55 52 55 90Q55 148 88 187T182 241Q195 246 226 246Q263 244 297
231T391 183Q456 147 486 137T558 126Q622 126 662 166Q686 187 688 214Q692 244 704 244T719 210Q719 168 704 134Q686 96 644 73T552 50Q515 50 483 62T384 110Q322 146 302 152Q263 168 220 168Q179 168 144 152Q131 148 111 128Q86 103 86 81Z" />
<glyph unicode="&#x224a;" glyph-name="uni224A" horiz-adv-x="778" d="M187 575Q203 579 219 579Q248 579 271 572Q304 565 393 508Q489 444 544 439H551Q620 439 662 486Q688 512 693 557Q693 565 697 572T707 579Q719 579 719 548Q719 494 691 455T618 397Q591
384 550 384Q525 384 504 390Q466 400 384 455Q286 518 231 523H220Q178 523 142 500T91 441Q84 427 84 412Q81 383 69 383Q56 383 56 413Q56 441 67 470Q78 508 111 537T187 575ZM719 313Q719 242 671 195T552 148H544Q509 153 504 155Q467 163 384 219Q289 281
231 288H222Q179 288 142 265T91 206Q84 188 84 177Q81 148 69 148Q56 148 56 178Q56 206 67 235Q78 274 111 302T187 339Q198 343 220 343Q252 343 271 337Q309 327 393 272Q448 236 480 222T544 203H553Q596 203 633 226T684 286Q691 295 691 312Q693 343 705
343Q719 343 719 313ZM62 -39Q51 -26 51 -19Q51 -10 55 -5L62 -1H387Q713 -1 715 -3Q725 -10 725 -20Q725 -27 718 -34Q714 -38 672 -38T387 -39H62Z" />
<glyph unicode="&#x224e;" glyph-name="uni224E" horiz-adv-x="778" d="M56 347Q56 360 70 367H245Q252 423 291 457T392 492Q447 492 486 456T532 367H707Q722 360 722 347Q722 335 712 330Q706 327 608 327H509Q496 333 494 351Q488 415 433 443Q415 451 389
451Q334 451 305 411Q286 386 283 351Q281 334 268 327H72Q56 332 56 347ZM56 153Q56 168 72 173H268Q281 167 283 149Q289 85 344 57Q362 49 389 49Q442 49 472 89Q491 114 494 149Q496 166 509 173H608Q706 173 712 170Q722 164 722 153Q722 140 707 133H532Q521
55 451 22Q422 8 389 8Q312 8 267 73Q250 99 245 133H70Q56 140 56 153Z" />
<glyph unicode="&#x224f;" glyph-name="uni224F" horiz-adv-x="778" d="M56 347Q56 360 70 367H245Q252 423 291 457T392 492Q447 492 486 456T532 367H707Q722 360 722 347Q722 335 712 330Q706 327 608 327H509Q496 333 494 351Q488 415 433 443Q415 451 389
451Q334 451 305 411Q286 386 283 351Q281 334 268 327H72Q56 332 56 347ZM56 153Q56 168 72 173H708Q709 172 712 170T717 166T720 161T722 153Q722 140 707 133H70Q56 140 56 153Z" />
<glyph unicode="&#x2251;" glyph-name="uni2251" horiz-adv-x="778" d="M321 510T321 541T340 590T391 609Q456 602 456 541Q456 510 438 492T389 474Q357 474 339 492ZM56 347Q56 360 70 367H707Q722 360 722 347Q722 336 708 328L390 327H72Q56 332 56 347ZM56
153Q56 168 72 173H708Q709 172 712 170T717 166T720 161T722 153Q722 140 707 133H70Q56 140 56 153ZM321 -72T321 -41T340 8T391 27Q456 20 456 -41Q456 -72 438 -90T389 -108Q357 -108 339 -90Z" />
<glyph unicode="&#x2252;" glyph-name="uni2252" horiz-adv-x="778" d="M15 516T15 541T32 583T75 601T117 584T135 541T118 499T75 481T33 498ZM56 347Q56 360 70 367H707Q722 360 722 347Q722 336 708 328L390 327H72Q56 332 56 347ZM56 153Q56 168 72 173H708Q709
172 712 170T717 166T720 161T722 153Q722 140 707 133H70Q56 140 56 153ZM727 -101T702 -101T660 -84T642 -41Q642 -15 659 1T702 18Q729 18 745 2T762 -41Q762 -66 745 -83Z" />
<glyph unicode="&#x2253;" glyph-name="uni2253" horiz-adv-x="778" d="M642 516T642 541T659 583T702 601Q727 601 744 583T762 541Q762 516 745 499T702 481T660 498ZM56 347Q56 360 70 367H707Q722 360 722 347Q722 336 708 328L390 327H72Q56 332 56 347ZM56
153Q56 168 72 173H708Q709 172 712 170T717 166T720 161T722 153Q722 140 707 133H70Q56 140 56 153ZM14 -41Q14 -14 31 2T74 18T117 2T135 -41T118 -84T75 -102Q49 -102 32 -85T14 -41Z" />
<glyph unicode="&#x2256;" glyph-name="uni2256" horiz-adv-x="778" d="M56 347Q56 360 70 367H707Q722 360 722 347Q722 335 712 330Q706 327 586 327H465L472 318Q496 289 496 250T472 182L465 173H586Q706 173 712 170Q722 164 722 153Q722 140 707 133H70Q56
140 56 153Q56 168 72 173H312L305 182Q281 211 281 250T305 318L312 327H72Q56 332 56 347ZM473 202T473 250T428 327H349Q304 298 304 250T349 173H428Q473 202 473 250Z" />
<glyph unicode="&#x2257;" glyph-name="uni2257" horiz-adv-x="778" d="M498 612Q498 566 467 535T389 503Q354 503 327 521Q307 534 293 559T279 612Q279 659 311 690T388 721T465 689T498 612ZM350 543T389 543T443 558T458 614Q458 668 415 679Q409 680 383
680Q331 680 321 639Q320 633 320 611Q320 572 335 558ZM56 347Q56 360 70 367H707Q722 360 722 347Q722 336 708 328L390 327H72Q56 332 56 347ZM56 153Q56 168 72 173H708Q709 172 712 170T717 166T720 161T722 153Q722 140 707 133H70Q56 140 56 153Z" />
<glyph unicode="&#x225c;" glyph-name="uni225C" horiz-adv-x="778" d="M192 482Q175 487 175 501Q175 506 178 512Q184 523 278 687T375 853Q379 857 383 857Q385 857 387 858T390 859Q397 859 403 853Q405 851 499 687T600 512Q603 506 603 501Q603 489 587
482H192ZM548 523L389 798Q388 798 309 661T230 523T389 522T548 523ZM56 347Q56 360 70 367H708Q723 360 723 347Q723 336 709 328L390 327H72Q56 332 56 347ZM56 153Q56 168 72 173H709Q710 172 713 170T718 166T721 161T723 153Q723 140 708 133H70Q56 140 56
153Z" />
<glyph unicode="&#x2266;" glyph-name="uni2266" horiz-adv-x="778" d="M674 753Q682 753 688 746T694 732Q694 724 687 718Q686 717 417 589L151 463L399 345Q687 209 691 204Q694 198 694 193Q694 175 676 173H670L382 309Q92 446 90 448Q83 453 83 465Q84 476
96 482Q104 486 382 617T665 751Q669 753 674 753ZM84 39Q84 50 99 59H678Q694 52 694 39T679 19H98Q84 26 84 39ZM98 -175Q84 -168 83 -157Q83 -145 99 -135H678Q694 -145 694 -155Q694 -168 679 -175H98Z" />
<glyph unicode="&#x2267;" glyph-name="uni2267" horiz-adv-x="778" d="M83 733Q83 739 88 746T99 753Q107 753 253 685T543 548T687 478Q694 473 694 463T687 448Q685 446 395 309L107 173H101Q83 175 83 193Q83 198 86 204Q90 209 378 345L626 463L360 589Q91
717 90 718Q83 725 83 733ZM84 39Q84 50 99 59H678Q694 52 694 39T679 19H98Q84 26 84 39ZM98 -175Q84 -168 83 -157Q83 -145 99 -135H678Q694 -145 694 -155Q694 -168 679 -175H98Z" />
<glyph unicode="&#x2268;" glyph-name="uni2268" horiz-adv-x="778" d="M86 472Q93 477 381 614T673 752Q680 752 686 746T693 732T689 721Q686 715 418 590L151 461L418 332Q684 207 689 201Q693 195 693 190Q693 183 687 177T675 170Q668 170 380 307T86 450Q82
454 82 461Q82 467 86 472ZM82 33Q82 38 95 54H473L520 105Q569 156 571 156Q573 157 578 157Q586 157 592 151T598 136Q598 130 562 92L526 56L604 54H682Q693 43 693 35Q693 30 680 14H489L342 -139L513 -142H682Q693 -151 693 -160Q693 -166 680 -182H304L258
-230Q248 -240 234 -254T213 -276T204 -284Q200 -286 197 -286Q189 -286 184 -280T178 -264Q178 -257 213 -219L249 -182H171L93 -179L86 -175Q82 -170 82 -163Q82 -155 95 -142H289L360 -64L433 14H262L93 16Q82 23 82 33Z" />
<glyph unicode="&#x2269;" glyph-name="uni2269" horiz-adv-x="778" d="M89 745Q95 752 100 752Q106 752 394 615T689 472Q693 468 693 461T689 450Q684 445 396 308T100 170Q95 170 89 176T82 190Q82 195 86 201Q91 208 358 332L624 461L358 590Q90 715 86 721Q82
725 82 731Q82 739 89 745ZM82 33Q82 38 95 54H473L520 105Q569 156 571 156Q573 157 578 157Q586 157 592 151T598 136Q598 130 562 92L526 56L604 54H682Q693 43 693 35Q693 30 680 14H489L342 -139L513 -142H682Q693 -151 693 -160Q693 -166 680 -182H304L258
-230Q248 -240 234 -254T213 -276T204 -284Q200 -286 197 -286Q189 -286 184 -280T178 -264Q178 -257 213 -219L249 -182H171L93 -179L86 -175Q82 -170 82 -163Q82 -155 95 -142H289L360 -64L433 14H262L93 16Q82 23 82 33Z" />
<glyph unicode="&#x226c;" glyph-name="uni226C" horiz-adv-x="500" d="M104 730Q104 749 123 749Q131 749 138 745Q186 717 237 671L250 659L261 670Q298 704 337 730Q370 750 375 750Q383 750 389 744T395 730Q395 719 379 709Q347 688 322 668Q290 641 283
632Q280 628 281 627T293 612Q410 473 424 290Q424 286 424 272T425 250T425 229T424 211Q410 27 293 -112Q282 -125 281 -126T283 -132Q290 -141 322 -168Q347 -188 379 -209Q395 -219 395 -230Q395 -238 389 -244T375 -250Q368 -250 337 -230Q304 -208 262 -171L250
-159L238 -170Q201 -204 162 -230Q129 -250 124 -250Q116 -250 110 -244T104 -230Q104 -219 121 -209Q157 -184 177 -168Q209 -141 216 -132Q219 -128 218 -127T206 -112Q89 27 75 211Q75 215 75 228T74 250T74 272T75 290Q89 473 206 612Q217 625 218 626T216
632Q209 641 177 668Q157 684 121 709Q104 719 104 730ZM249 -94Q364 59 364 250Q364 427 265 574Q260 580 255 586T249 594L242 583Q151 462 136 301Q134 283 134 250Q134 113 192 -1Q212 -44 242 -83L249 -94Z" />
<glyph unicode="&#x226e;" glyph-name="uni226E" horiz-adv-x="778" d="M693 -20Q693 -25 687 -33T675 -41Q667 -41 506 37L344 112Q342 112 262 -46Q184 -196 176 -205Q172 -209 168 -209T162 -208Q155 -208 151 -203T146 -190Q146 -178 171 -137Q193 -91 251
21L306 132L198 183Q91 231 86 239Q82 243 82 249Q82 253 86 261Q92 267 278 357L464 443L529 572Q590 696 600 706Q604 708 607 708Q615 708 622 702T629 688Q629 680 575 579L524 474Q524 473 545 482T598 508Q666 541 673 541T686 535T693 521T689 510Q685 504
589 459L493 414L360 150Q365 148 386 138T448 108T529 70Q686 -8 689 -10Q693 -14 693 -20ZM380 277L433 383Q432 385 292 319T151 250T237 209T324 170L380 277Z" />
<glyph unicode="&#x226f;" glyph-name="uni226F" horiz-adv-x="778" d="M82 520Q82 525 88 533T100 541Q106 541 271 463Q434 386 435 386L515 543Q593 699 600 706Q604 708 607 708Q615 708 622 702T629 688T549 526Q509 445 491 407T473 368Q522 343 580 317Q680
270 689 261Q693 257 693 250T689 239T502 146Q317 59 315 59Q312 56 246 -74Q197 -170 186 -189T168 -209Q164 -209 162 -208Q155 -208 151 -203T146 -190Q146 -187 200 -79L253 28L218 11Q182 -6 144 -23T100 -41Q95 -41 89 -35T82 -21T86 -10Q90 -4 186 41L284
88L349 217Q377 273 395 311T413 350Q413 351 253 428Q101 498 86 510Q82 514 82 520ZM542 290Q457 330 455 330Q454 331 453 329T448 321T441 308T430 287T416 259T398 223L342 114L624 250Q586 270 542 290Z" />
<glyph unicode="&#x2270;" glyph-name="uni2270" horiz-adv-x="778" d="M82 -124Q82 -119 95 -103H220L284 50Q346 204 344 206L218 268Q97 322 86 333Q82 337 82 344Q82 350 86 355Q104 369 291 455Q491 552 491 553L542 673Q591 791 598 797Q602 801 609 801T622
795T629 781Q629 773 586 677Q546 581 546 577L609 606Q669 635 673 635Q680 635 686 629T693 615T689 604Q680 595 604 561L524 521L400 226L542 157Q683 93 689 84Q694 77 694 72Q694 66 690 60T679 54Q664 54 526 121Q513 127 495 136T464 150T438 162T416 173T399
180T388 185L384 186Q383 186 322 41L262 -103H680Q693 -119 693 -124Q693 -134 682 -141L464 -143H246L213 -219Q182 -292 178 -299Q172 -303 166 -303T153 -297T146 -283Q146 -282 174 -213T202 -143H146L93 -141Q82 -134 82 -124ZM418 370L466 495Q464 495 308
420T151 344T204 317T311 267T364 244Q364 247 418 370Z" />
<glyph unicode="&#x2271;" glyph-name="uni2271" horiz-adv-x="778" d="M97 54Q91 54 87 60T82 72Q82 79 86 84Q95 91 222 153L351 215L398 324L442 433L258 519Q91 599 86 604Q82 608 82 615T88 628T102 635Q107 635 424 484L458 468L524 630Q595 795 598 797Q602
801 609 801T622 795T629 781L562 615L493 450L589 406Q684 362 689 355T694 344Q694 338 689 333Q681 325 538 257Q504 241 465 223T406 195T386 186Q384 185 322 39L262 -103H680Q693 -119 693 -124Q693 -134 682 -141L464 -143H246L213 -219Q182 -292 178 -299Q172
-303 166 -303T153 -297T146 -283Q146 -282 174 -213T202 -143H146L93 -141Q82 -134 82 -124Q82 -119 95 -103H220L273 26Q326 156 326 157L218 106Q109 54 97 54ZM553 379Q480 412 480 415Q479 415 460 372T423 285T406 241Q408 240 516 291T624 344L553 379Z"
/>
<glyph unicode="&#x2272;" glyph-name="uni2272" horiz-adv-x="778" d="M674 732Q682 732 688 725T694 711Q694 703 687 697Q686 696 417 568L151 442L399 324Q687 188 691 183Q694 177 694 172Q694 154 676 152H670L382 288Q92 425 90 427Q83 432 83 444Q84 455
96 461Q104 465 382 596T665 730Q669 732 674 732ZM69 -228Q56 -228 56 -202V-194Q56 -115 98 -61T201 4Q211 6 222 6Q241 6 253 3Q279 -3 306 -18T349 -46T395 -86Q449 -133 473 -147Q512 -171 554 -171Q578 -171 595 -165Q636 -152 664 -114T694 -29Q696 6 708
6Q722 6 722 -26Q722 -103 682 -158T581 -226Q575 -227 557 -227Q507 -227 464 -200Q432 -181 382 -136Q328 -89 304 -75Q265 -51 223 -51Q199 -51 182 -57Q141 -70 114 -107T83 -196Q81 -228 69 -228Z" />
<glyph unicode="&#x2273;" glyph-name="uni2273" horiz-adv-x="778" d="M83 713Q83 719 87 725T99 732Q107 732 253 664T543 527T687 457Q694 452 694 442T687 427Q685 425 395 288L107 152H101Q83 154 83 172Q83 177 86 183Q90 188 378 324L626 442L360 568Q91
696 90 697Q83 704 83 713ZM69 -228Q56 -228 56 -202V-194Q56 -115 98 -61T201 4Q211 6 222 6Q241 6 253 3Q279 -3 306 -18T349 -46T395 -86Q449 -133 473 -147Q512 -171 554 -171Q578 -171 595 -165Q636 -152 664 -114T694 -29Q696 6 708 6Q722 6 722 -26Q722
-103 682 -158T581 -226Q575 -227 557 -227Q507 -227 464 -200Q432 -181 382 -136Q328 -89 304 -75Q265 -51 223 -51Q199 -51 182 -57Q141 -70 114 -107T83 -196Q81 -228 69 -228Z" />
<glyph unicode="&#x2276;" glyph-name="uni2276" horiz-adv-x="778" d="M734 181Q734 174 728 168T714 161Q711 161 386 280T54 404Q44 409 44 421Q44 432 52 437Q66 443 388 562T714 681Q722 681 728 675T734 661Q734 650 723 644L420 531L122 421L420 311L723
198Q734 192 734 181ZM44 247Q44 254 49 260T63 267Q66 267 391 148T723 24Q734 18 734 7T723 -10Q716 -14 391 -133T63 -253Q55 -253 50 -247T44 -233Q44 -222 54 -216L357 -103L655 7L357 117L54 230Q44 236 44 247Z" />
<glyph unicode="&#x2277;" glyph-name="uni2277" horiz-adv-x="778" d="M83 653T83 661T89 675T104 681Q111 679 396 560Q686 437 687 436Q694 431 694 421T687 406Q686 405 543 344T253 222T101 161Q83 163 83 180Q83 193 95 199Q96 199 130 213T232 257T361
311L621 421L357 532Q93 643 90 646Q83 653 83 661ZM673 267Q694 267 694 248Q694 237 687 232Q684 229 420 118L156 7L416 -103L683 -215Q694 -222 694 -233Q694 -251 676 -253Q670 -253 524 -192T235 -70T90 -8Q83 -1 83 7Q83 19 94 24Q97 25 378 144T667 266Q669
267 673 267Z" />
<glyph unicode="&#x227c;" glyph-name="uni227C" horiz-adv-x="778" d="M694 17Q686 0 672 0Q657 0 653 24Q631 206 352 252Q249 270 118 270Q99 270 94 273Q83 277 83 290Q83 300 94 307Q98 310 118 310Q197 310 270 317Q538 342 620 464Q647 503 653 556Q656
580 675 580Q693 577 693 558V552Q687 494 659 448T584 371T486 321T372 290Q379 288 387 287Q426 279 465 266Q617 217 669 112Q688 70 693 28L694 17ZM583 -131Q583 -153 563 -153Q552 -153 548 -148T542 -127Q531 -54 478 0Q425 53 333 83T123 116Q98 116 93
119Q83 126 83 136Q83 156 113 156Q175 156 247 144Q458 109 542 -15Q575 -65 583 -131Z" />
<glyph unicode="&#x227d;" glyph-name="uni227D" horiz-adv-x="778" d="M83 562Q83 569 89 574T103 580Q121 580 124 553Q133 490 173 442Q271 330 553 314Q613 310 659 310Q678 310 681 309T691 301Q694 295 694 290T691 279Q684 271 664 270Q469 267 358 238Q146
183 124 27Q122 8 112 3Q108 0 103 0Q87 0 83 16Q81 35 96 80Q127 176 229 231Q293 267 405 290Q398 292 390 293Q351 301 312 314Q138 371 96 500Q83 541 83 562ZM212 -154Q194 -150 194 -131Q202 -41 270 27Q387 143 628 155Q632 155 644 155T661 156Q685 155
690 147Q694 143 694 136Q694 128 681 117L656 116Q405 106 299 0Q246 -54 235 -127Q233 -142 229 -148T212 -154Z" />
<glyph unicode="&#x227e;" glyph-name="uni227E" horiz-adv-x="778" d="M694 176Q694 153 674 153Q663 153 659 158T653 179Q645 240 606 287Q521 390 281 414Q204 421 137 422Q98 422 94 424Q84 431 84 442T94 460Q98 462 137 462Q204 463 281 470Q521 494 606
597Q645 644 653 705Q655 720 659 726T676 732Q694 729 694 708Q686 629 639 573Q561 480 373 442Q438 427 472 416Q494 408 533 392Q653 332 685 223Q692 199 694 176ZM69 -228Q56 -228 56 -202V-194Q56 -115 98 -61T201 4Q211 6 222 6Q241 6 253 3Q279 -3 306
-18T349 -46T395 -86Q449 -133 473 -147Q512 -171 554 -171Q578 -171 595 -165Q636 -152 664 -114T694 -29Q696 6 708 6Q722 6 722 -26Q722 -103 682 -158T581 -226Q575 -227 557 -227Q507 -227 464 -200Q432 -181 382 -136Q328 -89 304 -75Q265 -51 223 -51Q199
-51 182 -57Q141 -70 114 -107T83 -196Q81 -228 69 -228Z" />
<glyph unicode="&#x227f;" glyph-name="uni227F" horiz-adv-x="778" d="M674 463Q682 463 688 458T694 442Q694 431 683 424Q679 422 640 422Q358 416 235 341Q139 283 124 179Q122 163 118 158T103 153Q83 153 83 176Q91 255 138 311Q216 404 404 442Q339 457
305 468Q279 477 245 492Q125 551 92 661Q84 695 84 710Q84 732 102 732Q106 732 112 729Q122 724 124 705Q132 644 171 597Q256 494 497 470Q572 463 640 462Q650 462 661 462T674 463ZM69 -228Q56 -228 56 -202V-194Q56 -115 98 -61T201 4Q211 6 222 6Q241 6
253 3Q279 -3 306 -18T349 -46T395 -86Q449 -133 473 -147Q512 -171 554 -171Q578 -171 595 -165Q636 -152 664 -114T694 -29Q696 6 708 6Q722 6 722 -26Q722 -103 682 -158T581 -226Q575 -227 557 -227Q507 -227 464 -200Q432 -181 382 -136Q328 -89 304 -75Q265
-51 223 -51Q199 -51 182 -57Q141 -70 114 -107T83 -196Q81 -228 69 -228Z" />
<glyph unicode="&#x2280;" glyph-name="uni2280" horiz-adv-x="778" d="M386 292Q388 292 439 393T543 598T598 703Q599 703 603 704T609 705Q616 705 622 699T629 685T533 494Q440 308 440 305Q451 310 462 312Q547 342 592 388T651 505Q654 525 658 532T673
539Q680 539 686 533T693 519Q693 495 678 450Q638 341 500 283Q433 259 418 259Q416 259 411 251T406 241T415 239Q482 224 544 190Q674 121 691 -10Q693 -28 691 -32Q684 -43 672 -43Q664 -43 658 -37Q654 -30 651 -12Q634 109 500 168Q473 179 436 190T388 201H386L284
-1Q261 -45 232 -101T191 -181T178 -206Q176 -206 172 -207T166 -208Q160 -208 153 -202T146 -188Q146 -185 246 12Q344 206 344 210Q344 213 305 217T213 225T124 228H95Q82 241 82 248T95 268H124Q187 268 275 276Q301 278 343 284T386 292Z" />
<glyph unicode="&#x2281;" glyph-name="uni2281" horiz-adv-x="778" d="M103 -43Q96 -43 89 -39T82 -26L84 -10Q105 141 275 212Q342 236 355 236Q360 236 364 245L369 256H360Q284 280 275 283Q115 351 86 490Q82 507 82 517Q82 526 88 532T103 538Q110 538 115
534Q119 531 124 505Q138 434 185 387T320 310Q371 292 389 292L491 496Q595 701 598 703Q599 703 603 704T609 705Q616 705 622 699T629 685Q629 684 531 485Q431 296 431 288Q431 283 446 281Q533 268 651 268H680Q693 252 693 248Q693 241 680 228H651Q599 228
500 219Q469 217 429 211T386 201L284 -1Q261 -45 232 -101T191 -181T178 -206Q176 -206 172 -207T166 -208Q160 -208 153 -202T146 -188Q146 -182 302 125L335 190L324 185Q313 185 289 172Q141 114 124 -12Q121 -29 118 -37Q112 -43 103 -43Z" />
<glyph unicode="&#x2288;" glyph-name="uni2288" horiz-adv-x="778" d="M103 -123Q103 -118 115 -103H220L291 68L278 73Q203 101 153 157T86 288Q83 309 83 344Q83 380 86 399Q107 480 160 539Q222 601 298 621Q328 630 345 631T435 635L526 637L560 715Q594
795 598 797Q602 801 609 801T622 795T629 781Q629 780 625 771T614 742T600 706L571 637Q571 635 626 635H680Q693 619 693 613Q693 606 689 601L682 597L618 595H553L449 346Q425 288 399 223T359 127T346 95H356Q365 95 381 95T417 94T463 93T515 93H682Q693
82 693 74T680 53H511Q420 55 335 55L329 57L262 -103H680Q693 -119 693 -124Q693 -134 682 -141L464 -143H246L213 -219Q182 -292 178 -299Q172 -303 166 -303T153 -297T146 -283Q146 -282 174 -213T202 -143H115Q103 -129 103 -123ZM509 590Q509 595 438 595Q354
595 318 586Q246 567 195 516T126 395Q123 378 123 344T126 293Q141 229 184 181T291 110L306 104L406 346L509 590Z" />
<glyph unicode="&#x2289;" glyph-name="uni2289" horiz-adv-x="778" d="M82 613Q82 619 95 635H251Q415 635 426 633Q462 628 502 615L515 608L520 617Q520 619 558 708Q591 791 598 797Q602 801 609 801T622 795T629 781Q629 775 562 615L551 590L569 577Q646
527 678 437Q691 398 691 344T678 250Q653 182 597 132T469 64Q427 53 366 53H326L295 -25L262 -103H660Q673 -118 673 -125Q673 -131 669 -136L662 -141L453 -143H246L213 -219Q182 -292 178 -299Q172 -303 166 -303T153 -297T146 -283Q146 -282 174 -213T202
-143H95Q82 -127 82 -123T95 -103H220L251 -25L284 53H189L93 55L86 59Q82 64 82 71Q82 77 95 93H302L400 333Q498 569 498 573Q498 578 444 590Q431 593 260 595L93 597L86 601Q82 606 82 613ZM575 521Q571 526 549 544Q541 551 537 551Q534 551 533 548Q533 543
438 319L344 95L371 93H386Q483 93 555 149T649 293Q652 309 652 344Q652 378 649 395Q632 469 575 521Z" />
<glyph unicode="&#x228a;" glyph-name="uni228A" horiz-adv-x="778" d="M693 79T693 72T680 52H524Q398 52 367 53T309 63Q236 82 180 132T98 250Q84 288 84 343Q84 397 98 437Q126 515 193 568T346 632Q347 632 373 633T440 634T520 635H680Q693 619 693 615Q693
608 680 595H526Q364 595 353 592Q279 582 221 539T138 430Q124 392 124 343Q124 296 138 257Q163 192 221 149T353 95Q364 92 526 92H680Q693 79 693 72ZM102 -125Q102 -119 115 -103H382L420 -68Q429 -60 441 -49T461 -30T473 -19Q490 -5 496 -5Q503 -5 509 -12T515
-28Q515 -34 513 -37Q512 -38 507 -42T492 -55T475 -70L440 -101L562 -103H682Q693 -114 693 -122T680 -143H395L355 -179Q289 -241 280 -241Q273 -241 267 -235T260 -221T265 -208T300 -174L335 -143H224L113 -141L106 -137Q102 -132 102 -125Z" />
<glyph unicode="&#x228b;" glyph-name="uni228B" horiz-adv-x="778" d="M82 615Q82 619 95 635H251Q378 635 409 634T469 623Q540 605 596 555T678 437Q691 397 691 343T678 250Q649 172 581 119T426 55Q415 52 251 52H95Q82 65 82 72T95 92H249Q411 92 422 95Q496
105 554 148T638 257Q651 296 651 343Q651 391 638 430Q613 495 555 538T422 592Q411 595 249 595H95Q82 608 82 615ZM82 -125Q82 -119 95 -103H380L420 -57Q444 -30 466 -8Q469 -6 474 -6Q482 -6 488 -12T495 -25T451 -81L433 -101L549 -103H662Q673 -114 673
-122T660 -143H395L355 -190Q311 -239 309 -239Q305 -241 302 -241Q294 -241 287 -235T280 -221T324 -163L342 -143H218L93 -141L86 -137Q82 -132 82 -125Z" />
<glyph unicode="&#x228f;" glyph-name="uni228F" horiz-adv-x="778" d="M694 -8T694 -21T679 -41H98Q93 -39 84 -28L83 247V523Q88 534 94 536L99 539H679Q694 532 694 519T679 499H123V-1H678Q694 -8 694 -21Z" />
<glyph unicode="&#x2290;" glyph-name="uni2290" horiz-adv-x="778" d="M64 506T64 519T78 539H699Q706 536 714 526V-28Q706 -38 699 -41H78Q64 -34 64 -21Q64 -6 80 -1H674V499H78Q64 506 64 519Z" />
<glyph unicode="&#x229a;" glyph-name="uni229A" horiz-adv-x="778" d="M282 565Q327 582 382 582Q422 582 430 581Q532 566 610 500Q696 425 717 308Q721 286 721 250T717 192Q700 93 630 20Q554 -59 447 -78Q425 -82 389 -82Q344 -82 308 -73Q214 -50 146 23T61
192Q57 214 57 250T61 308Q78 407 148 480Q203 538 282 565ZM389 -43Q510 -43 596 43T682 250Q682 352 617 434Q601 455 573 478Q492 543 390 543Q268 543 182 457T96 250Q96 148 161 66Q177 45 205 22Q282 -43 389 -43ZM328 374Q358 388 384 388Q403 388 417 386Q458
377 487 347T526 275Q528 263 528 250T526 225Q517 182 487 152T414 113Q408 112 389 112T364 113Q321 122 291 152T252 225Q250 237 250 250T252 275Q266 345 328 374ZM488 250Q488 293 459 321T389 349T319 320T290 250Q290 207 320 179T389 151Q432 151 460
181T488 250Z" />
<glyph unicode="&#x229b;" glyph-name="uni229B" horiz-adv-x="778" d="M282 565Q327 582 382 582Q422 582 430 581Q532 566 610 500Q696 425 717 308Q721 286 721 250T717 192Q700 93 630 20Q554 -59 447 -78Q425 -82 389 -82Q344 -82 308 -73Q214 -50 146 23T61
192Q57 214 57 250T61 308Q78 407 148 480Q203 538 282 565ZM389 -43Q510 -43 596 43T682 250Q682 352 617 434Q601 455 573 478Q492 543 390 543Q268 543 182 457T96 250Q96 148 161 66Q177 45 205 22Q282 -43 389 -43ZM204 339Q204 355 214 365T238 375Q244 375
250 372Q251 372 258 366T282 349T311 328L368 286Q369 286 366 323T359 398T355 437Q357 456 379 465Q380 465 384 465T391 466Q403 465 412 457T423 437Q422 427 421 412T416 363T412 308L410 286L467 328Q528 372 529 372Q534 375 541 375Q554 375 564 364T575
339Q575 326 565 316Q562 313 496 281L430 250L496 219Q509 213 522 207T542 197T555 190T565 183T572 175Q575 168 575 161Q575 146 565 136T541 126Q532 126 529 128Q528 128 467 172L410 214Q409 214 412 177T419 102T423 63Q422 52 413 44T389 36T366 44T355
63Q356 73 357 88T362 137T366 192L368 214L311 172Q298 163 282 152T259 134T250 128Q246 126 238 126Q223 126 214 135T204 161Q204 175 213 184Q216 187 282 219L348 250L282 281Q269 287 256 293T236 303T223 310T213 317T206 325Q204 330 204 339Z" />
<glyph unicode="&#x229d;" glyph-name="uni229D" horiz-adv-x="778" d="M282 565Q327 582 382 582Q422 582 430 581Q532 566 610 500Q696 425 717 308Q721 286 721 250T717 192Q700 93 630 20Q554 -59 447 -78Q425 -82 389 -82Q344 -82 308 -73Q214 -50 146 23T61
192Q57 214 57 250T61 308Q78 407 148 480Q203 538 282 565ZM389 -43Q510 -43 596 43T682 250Q682 352 617 434Q601 455 573 478Q492 543 390 543Q268 543 182 457T96 250Q96 148 161 66Q177 45 205 22Q282 -43 389 -43ZM235 268Q238 270 389 270Q509 270 526 270T549
265Q555 259 555 250T549 235Q544 231 527 231T389 230Q239 230 235 232Q223 236 223 250Q223 262 235 268Z" />
<glyph unicode="&#x229e;" glyph-name="uni229E" horiz-adv-x="778" d="M56 676Q65 687 70 689H709Q719 681 722 674V15Q720 10 709 1L390 0H71Q60 5 58 11L55 16V346L56 676ZM369 365V649H95V365H369ZM682 365V649H409V365H682ZM369 40V325H95V40H369ZM682 40V325H409V40H682Z"
/>
<glyph unicode="&#x229f;" glyph-name="uni229F" horiz-adv-x="778" d="M56 676Q65 687 70 689H709Q719 681 722 674V15Q720 10 709 1L390 0H71Q60 5 58 11L55 16V346L56 676ZM682 365V649H95V365H682ZM682 40V325H95V40H682Z" />
<glyph unicode="&#x22a0;" glyph-name="uni22A0" horiz-adv-x="778" d="M56 676Q65 687 70 689H707Q714 686 722 676V13Q714 3 707 0H71Q60 5 58 11L55 16V346L56 676ZM389 374L654 649H123L128 644L389 374ZM95 70Q99 74 229 209T360 345L95 619V70ZM682 70V619L418
346Q417 344 549 207L682 70ZM654 41L400 304L388 315L123 41L256 40H522L654 41Z" />
<glyph unicode="&#x22a1;" glyph-name="uni22A1" horiz-adv-x="778" d="M56 676Q65 687 70 689H709Q719 681 722 674V15Q720 10 709 1L390 0H71Q60 5 58 11L55 16V346L56 676ZM682 40V649H95V40H682ZM415 285T389 285T347 302T330 345T347 388T390 405Q415 405
431 388T448 345T432 302Z" />
<glyph unicode="&#x22a8;" glyph-name="uni22A8" horiz-adv-x="611" d="M95 15Q88 1 77 0Q65 0 55 16V678Q65 694 77 694Q88 693 95 679V464H540Q554 457 555 446Q555 434 539 424H95V270H539Q555 260 555 248Q554 237 540 230H95V15Z" />
<glyph unicode="&#x22a9;" glyph-name="uni22A9" horiz-adv-x="722" d="M95 15Q88 1 77 0Q65 0 55 16V678Q65 694 77 694Q88 693 95 679V15ZM289 15Q282 1 271 0Q259 0 249 16V678Q259 694 271 694Q282 693 289 679V367H651Q666 360 666 347T651 327H289V15Z" />
<glyph unicode="&#x22aa;" glyph-name="uni22AA" horiz-adv-x="889" d="M95 15Q88 1 77 0Q65 0 55 16V678Q65 694 77 694Q88 693 95 679V15ZM277 15Q270 1 259 0Q247 0 237 16V678Q247 694 259 694Q270 693 277 679V15ZM459 15Q452 1 441 0Q429 0 419 16V678Q429
694 441 694Q452 693 459 679V367H818Q833 360 833 347T818 327H459V15Z" />
<glyph unicode="&#x22ac;" glyph-name="uni22AC" horiz-adv-x="611" d="M56 681Q70 695 76 695T96 681V368H243L381 530Q521 692 525 692Q537 700 547 688Q554 682 554 674Q554 668 549 661Q520 632 421 512Q296 373 296 368H416Q512 368 529 367T552 357Q554
351 554 348Q554 339 549 332L543 328H261L96 141V12Q80 -1 75 -1Q65 -1 58 10L56 50V92L18 48Q8 38 -2 27T-18 8L-24 1Q-30 -1 -33 -1Q-42 -1 -48 4T-55 19Q-55 24 -47 34T12 103L56 155V681ZM205 326Q205 328 152 328H96V263Q96 203 98 203Q99 203 123 231T174
290T205 326Z" />
<glyph unicode="&#x22ad;" glyph-name="uni22AD" horiz-adv-x="611" d="M56 681Q70 695 76 695T96 681V466H327L425 579Q522 692 527 692Q529 693 534 693Q542 693 547 688T553 674Q553 668 549 663Q549 662 538 650T504 611T463 563L381 468L461 466H543Q554
452 554 446Q554 439 541 426H345L209 272L376 270H543Q554 256 554 251T541 230H174L96 141V12Q80 -1 75 -1Q65 -1 58 10L56 50V92L18 48Q8 38 -2 27T-18 8L-24 1Q-30 -1 -33 -1Q-42 -1 -48 4T-55 19Q-55 24 -47 34T12 103L56 155V681ZM267 399L292 426H96V270H158L201
321Q256 382 267 399ZM118 228L119 229Q119 230 109 230H96V201L107 212Q118 227 118 228Z" />
<glyph unicode="&#x22ae;" glyph-name="uni22AE" horiz-adv-x="722" d="M56 681Q70 695 77 695T96 683V428L98 175L252 323V681Q264 695 272 695Q278 695 292 681V526Q292 368 296 368Q298 368 447 510Q638 695 642 695H645Q652 695 658 688T665 673T661 661Q659
660 639 641T578 582T505 512L356 370L505 368H654Q665 357 665 349Q665 344 652 328H314L303 317L292 308V12Q279 -1 272 -1T252 12V139Q252 266 249 266L96 119V12Q83 -1 76 -1T56 12V79L29 55Q-26 -1 -35 -1Q-42 -1 -48 5T-55 19Q-55 25 -51 30T-15 66Q5 86
18 99L56 135V681Z" />
<glyph unicode="&#x22af;" glyph-name="uni22AF" horiz-adv-x="722" d="M56 681Q70 695 77 695T96 683V428L98 175L252 323V681Q264 695 272 695Q278 695 292 681V466H401L503 563L621 679Q637 695 645 695Q652 695 658 688T665 673Q665 670 663 666Q663 665 651
652T611 612T561 563L458 468L556 466H654Q665 455 665 447T652 426H416L294 308L292 288V270H652Q665 254 665 250Q665 243 652 230H292V12Q279 -1 272 -1T252 12V139Q252 266 249 266L96 119V12Q83 -1 76 -1T56 12V79L29 55Q-26 -1 -35 -1Q-42 -1 -48 5T-55 19Q-55
25 -51 30T-15 66Q5 86 18 99L56 135V681ZM358 426H292V361L325 392L358 426Z" />
<glyph unicode="&#x22b2;" glyph-name="uni22B2" horiz-adv-x="778" d="M694 -26Q687 -40 676 -41H670L382 95Q92 232 90 234Q83 239 83 249Q83 262 96 267Q101 270 379 401T665 537Q671 539 674 539Q687 539 694 524V-26ZM654 11T654 249T653 487T402 369T151
249L275 190Q399 131 524 72T652 11Q654 11 654 249Z" />
<glyph unicode="&#x22b3;" glyph-name="uni22B3" horiz-adv-x="778" d="M101 -41Q90 -40 83 -26V523Q92 539 103 539Q107 539 389 406T680 268Q694 262 694 249Q694 239 687 234Q685 232 395 95L107 -41H101ZM376 368Q323 393 254 425T155 472L125 487Q123 487
123 249T125 11Q127 12 252 71T502 190L626 249L376 368Z" />
<glyph unicode="&#x22b4;" glyph-name="uni22B4" horiz-adv-x="778" d="M694 71Q687 57 676 56H670L382 192Q92 329 90 331Q83 336 83 346Q83 359 96 364Q101 367 379 498T665 634Q671 636 674 636Q687 636 694 621V71ZM654 108T654 346T653 584T402 466T151 346L275
287Q399 228 524 169T652 108Q654 108 654 346ZM98 -138Q84 -131 83 -120Q83 -108 99 -98H678Q694 -108 694 -120Q693 -131 679 -138H98Z" />
<glyph unicode="&#x22b5;" glyph-name="uni22B5" horiz-adv-x="778" d="M101 56Q90 57 83 71V620Q92 636 103 636Q107 636 389 503T680 365Q694 359 694 346Q694 336 687 331Q685 329 395 192L107 56H101ZM376 465Q323 490 254 522T155 570L125 584Q123 584 123
346T125 108Q127 109 252 168T502 287L626 346L376 465ZM98 -138Q84 -131 83 -120Q83 -108 99 -98H678Q694 -108 694 -120Q693 -131 679 -138H98Z" />
<glyph unicode="&#x22b8;" glyph-name="uni22B8" horiz-adv-x="1111" d="M741 283Q750 334 791 371T891 408Q912 408 926 406Q981 394 1018 353T1055 250Q1055 225 1047 202Q1033 159 1001 130T924 93Q917 92 896 92Q835 92 793 128T741 217Q739 227 738 228V230H405Q71
230 68 232Q55 238 55 250T68 268Q71 270 405 270H738V272Q739 273 741 283ZM891 368Q843 368 811 335T778 250Q778 208 800 179T857 138Q875 132 896 132Q938 132 967 154T1008 211Q1014 229 1014 250Q1014 296 988 327T920 367Q914 368 891 368Z" />
<glyph unicode="&#x22ba;" glyph-name="uni22BA" horiz-adv-x="556" d="M318 -182Q314 -190 312 -193T305 -202T294 -210T278 -212Q250 -212 239 -182L238 84V351H162L87 352Q57 361 57 391T84 429Q89 431 280 431H470Q480 425 484 422T494 411T500 391Q500 364
470 352L394 351H318V-182Z" />
<glyph unicode="&#x22bb;" glyph-name="uni22BB" horiz-adv-x="611" d="M56 697Q56 705 61 710T75 716Q86 716 90 709Q91 708 104 680T147 592T199 483L305 261L411 483Q434 531 463 591T505 680T520 709Q527 716 535 716Q541 716 548 711T555 700Q555 693 501
577T388 340T325 210Q318 194 306 194Q302 194 296 197Q290 199 285 210Q282 219 224 339T111 574T56 697ZM555 32T555 20T540 0H71Q55 9 55 20T71 40H540Q555 32 555 20Z" />
<glyph unicode="&#x22bc;" glyph-name="uni22BC" horiz-adv-x="611" d="M55 698Q56 709 70 716H540Q554 709 555 698Q555 686 539 676H71Q55 686 55 698ZM555 18Q552 0 536 0Q524 0 518 11Q517 12 410 235L305 455L199 233Q176 185 147 125T105 36T90 7Q85 0 75
0Q62 0 58 11Q55 15 55 21Q58 31 170 266T285 507Q290 517 296 519Q300 522 305 522Q315 522 320 515Q322 513 439 268L555 24V18Z" />
<glyph unicode="&#x22c5;" glyph-name="dotmath" horiz-adv-x="278" d="M66 187L70 189H209Q219 181 222 174V15Q220 10 209 1L140 0H71Q60 5 58 11L55 16V96L56 176Q59 180 66 187Z" />
<glyph unicode="&#x22c7;" glyph-name="uni22C7" horiz-adv-x="778" d="M366 543Q374 545 382 545Q405 545 419 538Q429 534 443 521T462 496Q466 478 466 467Q466 438 444 412Q422 390 388 390Q352 390 331 412Q311 434 311 467Q311 499 331 518Q345 533 366
543ZM146 472Q146 478 153 485T166 492Q171 492 187 476T279 385L386 278L495 385Q600 492 608 492Q615 492 621 486T628 472Q628 467 614 452T531 367L435 270H706Q720 256 720 250Q720 242 706 230H435L531 132Q600 63 614 48T628 27Q628 20 622 14T608 7Q600
7 495 114L386 221L279 114Q204 39 188 23T166 7Q159 7 153 13T146 27Q146 32 160 47T244 132L339 230H68Q55 243 55 250T68 270H339L244 367Q175 436 161 451T146 472ZM366 110Q374 112 382 112Q405 112 419 105Q429 100 443 87T462 63Q466 45 466 34Q466 4 444
-22Q421 -44 388 -44Q353 -44 331 -22Q311 1 311 34Q311 66 331 85Q347 101 366 110Z" />
<glyph unicode="&#x22c9;" glyph-name="uni22C9" horiz-adv-x="778" d="M146 479Q159 492 166 492Q171 492 189 475T279 386L386 279L495 386Q598 492 608 492Q615 492 621 486T628 472Q628 464 522 357L415 250L522 144Q628 37 628 28Q628 21 622 15T608 8Q599
8 495 115L386 221L279 115Q204 40 188 24T166 8Q159 8 146 21V479ZM186 77L359 250L186 424V77Z" />
<glyph unicode="&#x22ca;" glyph-name="uni22CA" horiz-adv-x="778" d="M146 472Q146 479 152 485T166 492Q171 492 189 475T279 386L386 279L495 386Q598 492 608 492Q617 492 628 479V21Q615 8 608 8Q599 8 495 115L386 221L279 115Q204 40 188 24T166 8Q159
8 153 14T146 28Q146 37 253 144L359 250L253 357Q146 464 146 472ZM588 77V424L499 337L415 250L588 77Z" />
<glyph unicode="&#x22cb;" glyph-name="uni22CB" horiz-adv-x="778" d="M55 674Q55 682 61 688T76 694T95 683Q96 682 410 342Q719 9 721 3Q721 2 721 1T722 -2Q722 -11 716 -16T701 -22T688 -17Q687 -15 542 141T394 301L388 306L240 146Q92 -14 89 -16Q83 -22
75 -22Q68 -22 62 -17T55 -2Q55 -1 55 0T56 3Q58 10 209 172L361 336L209 500Q58 662 56 669Q56 670 56 671T55 674Z" />
<glyph unicode="&#x22cc;" glyph-name="uni22CC" horiz-adv-x="778" d="M84 -22T76 -22T62 -17T55 -2Q55 -1 55 0T56 3Q58 9 367 342Q681 682 682 683Q693 694 702 694Q709 694 715 689T722 674Q722 673 722 672T721 669Q719 662 568 500L416 336L568 172Q719
10 721 3Q721 2 721 1T722 -2Q722 -11 716 -16T702 -22Q694 -22 688 -16Q685 -14 537 146L389 306L89 -17Q84 -22 76 -22Z" />
<glyph unicode="&#x22cd;" glyph-name="uni22CD" horiz-adv-x="778" d="M722 283Q722 250 707 250Q697 250 694 281Q693 304 682 330Q670 350 655 367Q613 407 556 407Q535 407 527 405Q479 395 411 343Q335 286 306 271Q265 251 222 251Q200 251 192 253Q133
266 95 315T56 433Q56 464 71 464Q81 464 81 450T89 405T123 347Q165 307 222 307Q243 307 251 309Q298 318 368 371Q442 428 473 443Q513 463 556 463Q578 463 586 461Q645 449 683 401T722 283ZM57 56Q57 71 73 76H706Q722 69 722 56Q722 44 707 36H71Q57 43
57 56Z" />
</font>
</defs>
</svg>
